img image001 image001 image001 image001 image001 image001 image001 image001 image001 image001 image001 image001 image001 image001 image001

Planets Sun Sun Sun
Статистика раздачи
Автор: Nickolas3434 | Размер: 3.5 ГБ | Добавлен: 18 сен 2015
Раздают: 6    Качают: 12
Скачать торрент
Скачать торрент
Описание торрента

СообщениеДобавлено: 18 сен 2015 


Информация о фильме
Название: Граффити счастливой кухни
Оригинальное название: Koufuku Graffit
Страна: Япония
Год выпуска: 2015 г.
Жанр: повседневность, комедия
Тип: TV
Продолжительность: 12 эп, ~25 мин. серия
Режиссер: Симбо Акиюки
Студия:

Описание: Рё - симпатичная девочка-восьмиклассница, которая уже давно живет одна: бабушка умерла год назад, а родители работают за границей, и даже тетя в Новый год завалена работой.
До того, как бабушка ушла из жизни, она научила Рё готовить. Но за годы одиночества девочке стало казаться, что вся еда, которую она готовит, несъедобна. Пока к ней не приехала ее троюродная сестренка, которая пожелала учиться в той же художественной школе, что и Рё. Сколько же еще вкусных блюд приготовит главная героиня, и какие будут ее дальнейшие приключения? Мы узнаем в аниме "Граффити счастливой кухни".

Перевод: Усатый Ня
Озвучивание: любительское двухголосое закадровое (жен./муж.) [Ivaniska & Galileosify]
Тайминг: Galileosify
Обложка: Ivaniska
Работа со звуком: Galileosify
Релиз от:

Качество: HDTVRip [Leopard-Raws]
Тип релиза: Без хардсаба
Формат видео: MP4
Совместимость с бытовыми плеерами: Нет
Видео: x264 (8 bit), 1280x720, 1391 kbps, 23.976 fps
Аудио: [int] AAC, 192 kbps, 48.0 KHz, 2 ch
General
Complete name : D:Новая папка 2[CactusTeam]_Koufuku_Graffiti_[Ivaniska_&_Galileosify][CactusTeam] Koufuku Graffiti - 01 (1280x720 x264 AAC) [Ivaniska & Galileosify] .mp4
Format : MPEG-4
Format profile : Base Media
Codec ID : isom
File size : 278 MiB
Duration : 24mn 29s
Overall bit rate mode : Variable
Overall bit rate : 1 584 Kbps
Encoded date : UTC 2015-01-13 22:05:23
Tagged date : UTC 2015-01-13 22:05:23
Writing application : Yamb 2.1.0.0 [http://yamb.unite-video.com]
Video
ID : 1
Format : AVC
Format/Info : Advanced Video Codec
Format profile : High@L4.1
Format settings, CABAC : Yes
Format settings, ReFrames : 4 frames
Codec ID : avc1
Codec ID/Info : Advanced Video Coding
Duration : 24mn 29s
Bit rate : 1 391 Kbps
Maximum bit rate : 14.7 Mbps
Width : 1 280 pixels
Height : 720 pixels
Display aspect ratio : 16:9
Frame rate mode : Constant
Frame rate : 23.976 fps
Color space : YUV
Chroma subsampling : 4:2:0
Bit depth : 8 bits
Scan type : Progressive
Bits/(Pixel*Frame) : 0.063
Stream size : 244 MiB (88%)
Title : 264
Writing library : x264 core 129 r2245+729M 1a52e03
Encoding settings : cabac=1 / ref=4 / deblock=1:1:-1 / analyse=0x3:0x113 / me=umh / subme=9 / psy=1 / fade_compensate=0.00 / psy_rd=1.00:0.00 / mixed_ref=1 / me_range=24 / chroma_me=1 / trellis=2 / 8x8dct=1 / cqm=0 / deadzone=21,11 / fast_pskip=1 / chroma_qp_offset=-2 / threads=8 / lookahead_threads=1 / sliced_threads=0 / nr=0 / decimate=1 / interlaced=0 / bluray_compat=0 / constrained_intra=0 / fgo=0 / bframes=9 / b_pyramid=2 / b_adapt=2 / b_bias=0 / direct=1 / weightb=1 / open_gop=0 / weightp=2 / keyint=240 / keyint_min=24 / scenecut=40 / intra_refresh=0 / rc=crf / mbtree=0 / crf=18.5 / qcomp=0.72 / qpmin=0 / qpmax=69 / qpstep=4 / ip_ratio=1.40 / pb_ratio=1.30 / aq=1:0.85
Encoded date : UTC 2015-01-09 05:21:08
Tagged date : UTC 2015-01-13 22:06:05
Color primaries : BT.709
Transfer characteristics : BT.709
Matrix coefficients : BT.709
Color range : Limited
Audio
ID : 2
Format : AAC
Format/Info : Advanced Audio Codec
Format profile : LC
Codec ID : 67
Duration : 24mn 29s
Bit rate mode : Variable
Bit rate : 192 Kbps
Maximum bit rate : 195 Kbps
Channel(s) : 2 channels
Channel positions : Front: L R
Sampling rate : 48.0 KHz
Compression mode : Lossy
Stream size : 33.2 MiB (12%)
Encoded date : UTC 2015-01-13 22:05:50
Tagged date : UTC 2015-01-13 22:06:05
01. Блюдо первое. Горячее и сочное.
02. Блюдо второе. Воздушное и хрустящее.
03. Блюдо третье. Пышное и сочащееся
04. Блюдо четвёртое. Сочное и хрустящее.
05. Блюдо пятое: Глотаем, прихлёбывая.
06. Блюдо шестое. Горячее и упругое.
07. Блюдо седьмое. Шипящее, потрескивающее.
08. Блюдо восьмое. С пылу с жару, громко хрустящее.
09. Блюдо девятое. Кипящее, пышущее паром...
10. Блюдо десятое. Упругое, с расплавленным сыром.
11. Блюдо одиннадцатое. Хрустим, прихлёбывая.
12. Блюдо двенадцатое. Впитавшее сок, упругое.





   Похожие торренты   Торрент   Размер 
В этой теме нет новых непрочитанных сообщений. Граффити счастливой кухни / Koufuku Graffit [TV] [01 из 12] (2015) WEBRip 720p | AniFilm

2 | 3

1.74 ГБ

В этой теме нет новых непрочитанных сообщений. Граффити счастливой кухни / Koufuku Graffit [TV] [01 из 12] (2015) WEBRip 720p | AniFilm

2 | 2

709.45 МБ

В этой теме нет новых непрочитанных сообщений. Граффити счастливой кухни / Koufuku Graffit [TV] [01 из 12] (2015) WEBRip 720p | AniFilm

27 | 3

354.5 МБ

В этой теме нет новых непрочитанных сообщений. Граффити счастливой кухни / Koufuku Graffit [TV] [01-07 из 12] (2015) WEBRip 720p | AniFilm

0 | 2

2.44 ГБ

В этой теме нет новых непрочитанных сообщений. Граффити счастливой кухни / Koufuku Graffit [TV] [01 из 12] (2015) WEBRip 720p | AniFilm

10 | 3

1.04 ГБ

В этой теме нет новых непрочитанных сообщений. Класс убийц / Ansatsu kyôshitsu [S01] (2015) HDTVRip 720p | L | CactusTeam

74 | 11

9.33 ГБ

В этой теме нет новых непрочитанных сообщений. Очень приятно, Бог [ТВ-2] / Kami-sama Hajimemashita 2 [TV] [01-12 из 12] (2015) HDTVRip 720p | L2 | CactusTeam

189 | 39

4.2 ГБ




Вы не можете начинать темы
Вы не можете отвечать на сообщения
Вы не можете редактировать свои сообщения
Вы не можете удалять свои сообщения
Вы не можете добавлять вложения

Перейти:  
Для Мосгорсуда, Роскомнадзора и рекламодателей: mosgorsud-torrent[собачка]yandex.ru
 Вход
ppkBB3cker v.2 © 2008-2014 @ PPK
[ Time : 0.055s | 15 Queries | GZIP : Off ]

Торрент трекер RUTOR.IN, Не можете зайти на rutor.org? Какой новый адрес рутор? Какое зеркало рутор? Не работает rutor.org и зеркала? Тогда наш торрент специально для вас. Rutor.in неофициальное зеркало rutor. В случае если у Вас заблокирован rutor или вдруг Вы не можете на него зайти, то Вы без труда сможете скачать бесплатно и без рекламы последние новинки кино, игр, сериалов и прочего у нас, на Rutor.in. Не нужно использовать прокси, чтобы зайти на рутор, достаточно воспользоваться нашим ресурсом. Все новые фильмы, игры, сериалы, книги и музыка за 2013 и 2014 годы через торрент бесплатно. Скачивайте фильмы в хорошем качестве, игры для пк, xbox, playstation без регистрации. У нас вы найдете новые Зарубежные сериалы и Русские сериалы 2013, 2014, 2015 годов. Оставайтесь с нами, качайте любимые фильмы, игры, сериалы, книги и музыку.
cron