img image001 image001 image001 image001 image001 image001 image001 image001 image001 image001 image001 image001 image001 image001 image001

Planets Sun Sun Sun
Статистика раздачи
Автор: Nickolas3434 | Размер: 2.92 ГБ | Добавлен: 28 сен 2015
Раздают: 54    Качают: 15
Скачать торрент
Скачать торрент
Описание торрента

СообщениеДобавлено: 28 сен 2015 

D: Охотник на вампиров / Vampire Hunter D (1985) BDRip [720p] от SDIncorporation | P

Информация о фильме
Русское название: D: Охотник на вампиров
Оригинальное название: Vampire Hunter D
Страна: Япония
Студия: Ashi Productions
Год выпуска: 1985
Жанр: Детектив, Криминал, Драма, мистика
Перевод: Профессиональный многоголосый
Режиссер: Араки Тэцуро
Работа над релизом: Nod33Eset(retvil)
StreetDespair
О фильме:
В далеком будущем на Земле властвуют могущественные вампиры, поработившие человечество. Эти кровожадные монстры – бессмертные потомки древних аристократических родов – держат людей в страхе, наслаждаясь беспомощностью смертных и горячей кровью в их венах. Став жертвой "поцелуя бессмертия" ужасного графа Ли, отважная девушка Дорис обращается за помощью к странствующему охотнику на вампиров D. Она просит охотника отомстить графу и спасти родной город, живущий в зловещей тени его величественного замка. Дорис нанимает загадочного незнакомца, не зная, что на самом деле D – дампир, плод порочного союза вампира-аристократа и простолюдинки. Скрывая от всех свою зловещую тайну, неуязвимый охотник на вампиров бросает вызов коварным слугам графа – мутантам, оборотням и демонам, и его верным помощникам – юной графине Ламике и Рэю, мечтающему стать вампиром. Но D знает, что его самый опасный враг – сам граф, живущий на Земле уже десять тысяч лет...


Продолжительность: 01:22:01
Качество видео: BDRip 720p
Видеокодек: AVC
Формат: MKV
Битрейт видео: ~5000 Kbps
Размер кадра: 968x720
Аудиокодек: AC3
Битрейт аудио: 192 kbps & 192 kbps & 256 kbps
Аудио #1: Русский ( 48 kHz, AC3 Dolby Digital, 2 channels, ~192 kbps) — Профессиональный многоголосый закадровый [MC Entertainment]
Аудио #2: Русский ( 48 kHz, AC3 Dolby Digital, 2 channels, ~192 kbps) — Профессиональный многоголосый закадровый [Kinomania]
Аудио #3: Японский ( 48 kHz, AC3 Dolby Digital, 2 channels, ~256 kbps) — [Japanese]
Субтитры #1: Russian Subtitles
Субтитры #2: English Subtitles


General
Unique ID : 181630182066072677273100788640963827652 (0x88A4B35D710BF05B99BACC95FCCF17C4)
Complete name : Vampire.Hunter.D.1985.BDRip.720p.Rus.Jap.SDIncorporation.mkv
Format : Matroska
Format version : Version 4 / Version 2
File size : 2.92 GiB
Duration : 1h 22mn
Overall bit rate mode : Variable
Overall bit rate : 5 093 Kbps
Movie name : Vampire Hunter D [720p] (1985) © SDIncorporation
Encoded date : UTC 2015-09-26 20:50:30
Writing application : mkvmerge v8.4.0 ('A better way to fly') 64bit
Writing library : libebml v1.3.1 + libmatroska v1.4.2
DURATION : 01:17:20.740000000
NUMBER_OF_FRAMES : 653
NUMBER_OF_BYTES : 40735
_STATISTICS_WRITING_APP : mkvmerge v8.4.0 ('A better way to fly') 64bit
_STATISTICS_WRITING_DATE_UT : 2015-09-26 20:50:30
_STATISTICS_TAGS : BPS DURATION NUMBER_OF_FRAMES NUMBER_OF_BYTES
Video
ID : 1
Format : AVC
Format/Info : Advanced Video Codec
Format profile : Main@L3.1
Format settings, CABAC : Yes
Format settings, ReFrames : 3 frames
Codec ID : V_MPEG4/ISO/AVC
Duration : 1h 22mn
Bit rate mode : Variable
Bit rate : 4 352 Kbps
Maximum bit rate : 16.0 Mbps
Width : 968 pixels
Height : 720 pixels
Display aspect ratio : 4:3
Original display aspect rat : 16:9
Frame rate mode : Constant
Frame rate : 25.000 fps
Standard : NTSC
Color space : YUV
Chroma subsampling : 4:2:0
Bit depth : 8 bits
Scan type : Progressive
Bits/(Pixel*Frame) : 0.250
Stream size : 2.49 GiB (85%)
Title : Video
Default : Yes
Forced : No
Color range : Limited
Audio #1
ID : 2
Format : AC-3
Format/Info : Audio Coding 3
Mode extension : CM (complete main)
Format settings, Endianness : Big
Codec ID : A_AC3
Duration : 1h 22mn
Bit rate mode : Constant
Bit rate : 192 Kbps
Channel(s) : 2 channels
Channel positions : Front: L R
Sampling rate : 48.0 KHz
Compression mode : Lossy
Stream size : 113 MiB (4%)
Title : MC Entertainment
Language : Russian
Default : Yes
Forced : No
Audio #2
ID : 3
Format : AC-3
Format/Info : Audio Coding 3
Mode extension : CM (complete main)
Format settings, Endianness : Big
Codec ID : A_AC3
Duration : 1h 22mn
Bit rate mode : Constant
Bit rate : 192 Kbps
Channel(s) : 2 channels
Channel positions : Front: L R
Sampling rate : 48.0 KHz
Compression mode : Lossy
Stream size : 113 MiB (4%)
Title : Kinomania
Language : Russian
Default : No
Forced : No
Audio #3
ID : 4
Format : AC-3
Format/Info : Audio Coding 3
Mode extension : CM (complete main)
Format settings, Endianness : Big
Codec ID : A_AC3
Duration : 1h 22mn
Bit rate mode : Constant
Bit rate : 256 Kbps
Channel(s) : 2 channels
Channel positions : Front: L R
Sampling rate : 48.0 KHz
Compression mode : Lossy
Stream size : 150 MiB (5%)
Title : Japanese
Language : Japanese
Default : No
Forced : No
Text #1
ID : 5
Format : UTF-8
Codec ID : S_TEXT/UTF8
Codec ID/Info : UTF-8 Plain Text
Title : Russian Subtitles
Language : Russian
Default : Yes
Forced : No
Text #2
ID : 6
Format : ASS
Codec ID : S_TEXT/ASS
Codec ID/Info : Advanced Sub Station Alpha
Compression mode : Lossless
Title : English Subtitles
Language : English
Default : No
Forced : No
Menu
00:00:04.064 : en:00:00:00.000
00:05:26.428 : en:00:05:22.364
00:20:58.692 : en:00:20:54.628
00:27:35.088 : en:00:27:31.024
00:40:33.533 : en:00:40:29.469
00:46:49.492 : en:00:46:45.428
00:54:01.715 : en:00:53:57.651
01:02:11.371 : en:01:02:07.307
01:05:18.558 : en:01:05:14.494
01:06:43.101 : en:01:06:39.037
01:11:52.535 : en:01:11:48.471
01:16:43.284 : en:01:16:39.220
01:20:31.887 : en:01:20:27.823





Время раздачи: С 8:00 до 22:00
Релиз от: ©SDIncorporation



   Похожие торренты   Торрент   Размер 
В этой теме нет новых непрочитанных сообщений. D: Охотник на вампиров OVA / Vampire Hunter D OVA (1985) BDRip 720p от SDIncorporation | P

26 | 4

4.98 ГБ

В этой теме нет новых непрочитанных сообщений. Ди - охотник на вампиров / Vampire Hunter D (1985) BDRip-AVC от MediaClub | P, A

174 | 13

1.93 ГБ

В этой теме нет новых непрочитанных сообщений. D: Охотник на вампиров / Vampire Hunter D (1985) DVDRip

38 | 4

1.07 ГБ

В этой теме нет новых непрочитанных сообщений. Президент Линкольн: Охотник на вампиров / Abraham Lincoln: Vampire Hunter (2012) BDRip 720p от NNNB | 60 fps

29 | 4

3.48 ГБ

В этой теме нет новых непрочитанных сообщений. Президент Линкольн: Охотник на вампиров / Abraham Lincoln: Vampire Hunter (2012) BDRip 720p | Лицензия

4 | 3

5.44 ГБ

В этой теме нет новых непрочитанных сообщений. Президент Линкольн: Охотник на вампиров / Abraham Lincoln: Vampire Hunter (2012) BDRip 720p от HQ-ViDEO | Лицензия

62 | 9

5.02 ГБ

В этой теме нет новых непрочитанных сообщений. Президент Линкольн: Охотник на вампиров / Abraham Lincoln: Vampire Hunter (2012) BDRip от HELLYWOOD

7 | 4

2.18 ГБ




Вы не можете начинать темы
Вы не можете отвечать на сообщения
Вы не можете редактировать свои сообщения
Вы не можете удалять свои сообщения
Вы не можете добавлять вложения

Перейти:  
Для Мосгорсуда, Роскомнадзора и рекламодателей: mosgorsud-torrent[собачка]yandex.ru
 Вход
ppkBB3cker v.2 © 2008-2014 @ PPK
[ Time : 0.162s | 14 Queries | GZIP : Off ]

Торрент трекер RUTOR.IN, Не можете зайти на rutor.org? Какой новый адрес рутор? Какое зеркало рутор? Не работает rutor.org и зеркала? Тогда наш торрент специально для вас. Rutor.in неофициальное зеркало rutor. В случае если у Вас заблокирован rutor или вдруг Вы не можете на него зайти, то Вы без труда сможете скачать бесплатно и без рекламы последние новинки кино, игр, сериалов и прочего у нас, на Rutor.in. Не нужно использовать прокси, чтобы зайти на рутор, достаточно воспользоваться нашим ресурсом. Все новые фильмы, игры, сериалы, книги и музыка за 2013 и 2014 годы через торрент бесплатно. Скачивайте фильмы в хорошем качестве, игры для пк, xbox, playstation без регистрации. У нас вы найдете новые Зарубежные сериалы и Русские сериалы 2013, 2014, 2015 годов. Оставайтесь с нами, качайте любимые фильмы, игры, сериалы, книги и музыку.