img image001 image001 image001 image001 image001 image001 image001 image001 image001 image001 image001 image001 image001 image001 image001

Planets Sun Sun Sun
Статистика раздачи
Автор: Nickolas3434 | Размер: 10.54 ГБ | Добавлен: 08 окт 2015
Раздают: 28    Качают: 64
Скачать торрент
Скачать торрент
Описание торрента

СообщениеДобавлено: 08 окт 2015 



Информация о фильме
Название: Рыцари Сидонии
Оригинальное название: Sidonia no Kishi / Knights of Sidonia
Год выхода: 2014
Жанр: приключения, научная фантастика, меха
Режиссер: Сидзуно Кобун
Художник: Нисино Такаё
В ролях: Осака Рёта, Судзаки Ая, Тоёсаки Аки, Сакурай Такахиро, Канэмото Хисако, Китамура Эри, Охара Саяка, Цубой Томохиро, Коясу Такэхито, Арай Сатоми, Танака Ацуко, Мори Нанако, Сайто Сома, Мацумото Синобу, Судзуки Юто, Игараси Хироми

О фильме:
В далеком будущем Земля была уничтожена космическими пришельцами Гауна. Ее жители бежали в космос, превратив осколки родной планеты в гигантские корабли, но сбить врага со следа не удалось. «Сидония» - один из кораблей-миров, что ищет новый дом, отбиваясь от Гауна, монстров-оборотней с каменной броней. Главная защита ковчега - боевые роботы-Стражи, обладающие оружием, способным уничтожить чужаков. Хотя люди за сотни лет полета всячески улучшали себя (например, освоив фотосинтез), достойных пилотов для Стражей мало, и командование не отбрасывает никого, даже весьма странных личностей.
Нагатэ вырос на заброшенных нижних уровнях, зная только своего деда Хироки. Единственной отрадой парня был старинный пилотский тренажер. Но вот дед умер, еда кончилась, житель подземелья подался на поиски и вскоре попал к военным, которые оценили его талант, развитый бесчисленными тренировками. Теперь Нагатэ – молодой пилот, настоящий рыцарь «Сидонии», а присматривать за «диким» приставили симпатичную курсантку Сидзуку. Пускай Гауна вокруг корабля давно не видели, они все равно где-то рядом. А вот тогда главный герой сполна отработает свой рис, ибо настоящему мужчине заниматься фотосинтезом не к лицу!
© Hollow, World Art


World Art | MAL

Страна: Япония
Студия: Polygon Pictures
Продолжительность: 00:24:00
Язык: Русский, Японский
Перевод: Любительский (многоголосый, закадровый), Любительский (двухголосый, закадровый)

Файл
Качество: BDRip
Формат: MKV
Кодек: x264 (10bit)
Видео: 1280x720, 23.976 fps, 4100 kbps
Звук: Аудио кодек: AC3
Аудио RUS: 48.0 kHz, AC3, 2 ch, 192 kbps - AniDub
Аудио RUS: 48.0 kHz, AC3, 2 ch, 192 kbps - SHIZA Project
Аудио RUS: 48.0 kHz, AC3, 2 ch, 192 kbps - Eladiel & Absurd
Аудио JAP: 48.0 kHz, AC3, 6 ch, 448 kbps
Субтитры: русские (встроенные только надписи, ASS), русские (встроенные полный перевод, ASS) - chainsaws & Eladiel & Kekcelt & PikoPiko

Релиз от:
Озвучивание: Cuba77, FruKt, Trina_D, Shina
Перевод: Antravoco (01-02), HUNTA & Fratelli (03-12)

Релиз от:
Озвучивание: Gomer, Viki, Reewayvs (01-04),
Тайминг и работа со звуком: Apatech (01-08, 10-12), tengu (09)

Релиз от: Eladiel & Absurd
Озвучивание: Eladiel & Absurd

01. Первый бой / First Battle
02. Звёздное небо / Starry Sky
03. Слава / Glory
04. Выбор / Choice
05. Дрейф / Adrift
06. Честь / Salute
07. Решительность / Resolve
08. Бессмертные / Undead
09. Взгляд / Gaze
10. Решение / Determination
11. Столкновение / Collision
12. Возвращение / Returning to the Ship
General
Format : Matroska
Format version : Version 4 / Version 2
File size : 921 MiB
Duration : 24mn 29s
Overall bit rate : 5 261 Kbps
Encoded date : UTC 2015-08-07 06:03:27
Writing application : mkvmerge v7.1.0 ('Good Love') 64bit built on Jul 27 2014 13:06:55
Writing library : libebml v1.3.0 + libmatroska v1.4.1
_STATISTICS_WRITING_APP : mkvmerge v7.1.0 ('Good Love') 64bit built on Jul 27 2014 13:06:55
_STATISTICS_WRITING_DATE_UTC : 2015-08-07 06:03:27
_STATISTICS_TAGS : BPS DURATION NUMBER_OF_FRAMES NUMBER_OF_BYTES
DURATION : 00:24:24.920000000
NUMBER_OF_FRAMES : 1294
NUMBER_OF_BYTES : 166481

Video
ID : 1
Format : AVC
Format/Info : Advanced Video Codec
Format profile : High 10@L4.1
Format settings, CABAC : Yes
Format settings, ReFrames : 9 frames
Codec ID : V_MPEG4/ISO/AVC
Duration : 24mn 29s
Bit rate : 4 133 Kbps
Width : 1 280 pixels
Height : 720 pixels
Display aspect ratio : 16:9
Frame rate mode : Constant
Frame rate : 23.976 fps
Color space : YUV
Chroma subsampling : 4:2:0
Bit depth : 10 bits
Scan type : Progressive
Bits/(Pixel*Frame) : 0.187
Stream size : 724 MiB (79%)
Writing library : x264 core 132 r2309 3b1f1f7
Encoding settings : cabac=1 / ref=9 / deblock=1:-2:-2 / analyse=0x3:0x133 / me=umh / subme=9 / psy=1 / psy_rd=0.90:0.00 / mixed_ref=1 / me_range=24 / chroma_me=1 / trellis=2 / 8x8dct=1 / cqm=0 / deadzone=21,11 / fast_pskip=1 / chroma_qp_offset=-2 / threads=12 / lookahead_threads=2 / sliced_threads=0 / nr=0 / decimate=0 / interlaced=0 / bluray_compat=0 / constrained_intra=0 / bframes=8 / b_pyramid=2 / b_adapt=2 / b_bias=0 / direct=1 / weightb=1 / open_gop=0 / weightp=2 / keyint=250 / keyint_min=23 / scenecut=40 / intra_refresh=0 / rc=crf / mbtree=0 / crf=15.8 / qcomp=0.70 / qpmin=9 / qpmax=42 / qpstep=4 / ip_ratio=1.40 / pb_ratio=1.30 / aq=1:0.90
Language : Japanese
Default : No
Forced : No
_STATISTICS_WRITING_APP : mkvmerge v7.1.0 ('Good Love') 64bit built on Jul 27 2014 13:06:55
_STATISTICS_WRITING_DATE_UTC : 2015-08-07 06:03:27
_STATISTICS_TAGS : BPS DURATION NUMBER_OF_FRAMES NUMBER_OF_BYTES
DURATION : 00:24:29.051000000
NUMBER_OF_FRAMES : 35222
NUMBER_OF_BYTES : 777269101

Audio #1
ID : 2
Format : AC-3
Format/Info : Audio Coding 3
Mode extension : CM (complete main)
Format settings, Endianness : Big
Codec ID : A_AC3
Duration : 24mn 29s
Bit rate mode : Constant
Bit rate : 192 Kbps
Channel(s) : 2 channels
Channel positions : Front: L R
Sampling rate : 48.0 KHz
Bit depth : 16 bits
Compression mode : Lossy
Stream size : 33.6 MiB (4%)
Title : AniDub
Language : Russian
Default : Yes
Forced : No

Audio #2
ID : 3
Format : AC-3
Format/Info : Audio Coding 3
Mode extension : CM (complete main)
Format settings, Endianness : Big
Codec ID : A_AC3
Duration : 24mn 29s
Bit rate mode : Constant
Bit rate : 192 Kbps
Channel(s) : 2 channels
Channel positions : Front: L R
Sampling rate : 48.0 KHz
Bit depth : 16 bits
Compression mode : Lossy
Stream size : 33.6 MiB (4%)
Title : SHIZA Project
Language : Russian
Default : No
Forced : No

Audio #3
ID : 4
Format : AC-3
Format/Info : Audio Coding 3
Mode extension : CM (complete main)
Format settings, Endianness : Big
Codec ID : A_AC3
Duration : 24mn 29s
Bit rate mode : Constant
Bit rate : 192 Kbps
Channel(s) : 2 channels
Channel positions : Front: L R
Sampling rate : 48.0 KHz
Bit depth : 16 bits
Compression mode : Lossy
Stream size : 33.6 MiB (4%)
Title : Eladiel & Absurd
Language : Russian
Default : No
Forced : No

Audio #4
ID : 5
Format : AC-3
Format/Info : Audio Coding 3
Mode extension : CM (complete main)
Format settings, Endianness : Big
Codec ID : A_AC3
Duration : 24mn 29s
Bit rate mode : Constant
Bit rate : 448 Kbps
Channel(s) : 6 channels
Channel positions : Front: L C R, Side: L R, LFE
Sampling rate : 48.0 KHz
Bit depth : 16 bits
Compression mode : Lossy
Stream size : 78.5 MiB (9%)
Title : JAP Original
Language : Japanese
Default : No
Forced : No

Text #1
ID : 6
Format : ASS
Codec ID : S_TEXT/ASS
Codec ID/Info : Advanced Sub Station Alpha
Compression mode : Lossless
Title : Надписи
Language : Russian
Default : Yes
Forced : No

Text #2
ID : 7
Format : ASS
Codec ID : S_TEXT/ASS
Codec ID/Info : Advanced Sub Station Alpha
Compression mode : Lossless
Title : Полные субтитры
Language : Russian
Default : No
Forced : No



   Похожие торренты   Торрент   Размер 
В этой теме нет новых непрочитанных сообщений. Рыцари Сидонии / Sidonia no Kishi / Knights of Sidonia [01x01-10 из 12] (2014) HDTVRip 720p | Sub

24 | 25

5 ГБ

В этой теме нет новых непрочитанных сообщений. Рыцари Сидонии / Sidonia no Kishi / Knights of Sidonia [01x01-12 из 12] (2014) HDTVRip 720p | Sub

50 | 24

6.19 ГБ

В этой теме нет новых непрочитанных сообщений. Рыцари Сидонии / Sidonia no Kishi / Knights of Sidonia [01x01-03 из 12] (2014) HDTVRip 720p | Sub

24 | 21

1.57 ГБ

В этой теме нет новых непрочитанных сообщений. Рыцари Сидонии / Sidonia no Kishi / Knights of Sidonia [01x01-07 из 12] (2014) HDTVRip 720p | Sub

27 | 31

3.73 ГБ

В этой теме нет новых непрочитанных сообщений. Рыцари Сидонии / Sidonia no Kishi / Knights of Sidonia [01x01-04 из 12] (2014) HDTVRip 720p | Sub

14 | 10

2.23 ГБ

В этой теме нет новых непрочитанных сообщений. Рыцари Сидонии / Sidonia no Kishi / Knights of Sidonia [01x01-11 из 12] (2014) HDTVRip 720p | Sub

37 | 27

5.59 ГБ

В этой теме нет новых непрочитанных сообщений. Рыцари Сидонии / Sidonia no Kishi / Knights of Sidonia [01x01-09 из 12] (2014) HDTVRip 720p | Sub

33 | 41

4.59 ГБ




Вы не можете начинать темы
Вы не можете отвечать на сообщения
Вы не можете редактировать свои сообщения
Вы не можете удалять свои сообщения
Вы не можете добавлять вложения

Перейти:  
Для Мосгорсуда, Роскомнадзора и рекламодателей: mosgorsud-torrent[собачка]yandex.ru
 Вход
ppkBB3cker v.2 © 2008-2014 @ PPK
[ Time : 0.049s | 14 Queries | GZIP : Off ]

Торрент трекер RUTOR.IN, Не можете зайти на rutor.org? Какой новый адрес рутор? Какое зеркало рутор? Не работает rutor.org и зеркала? Тогда наш торрент специально для вас. Rutor.in неофициальное зеркало rutor. В случае если у Вас заблокирован rutor или вдруг Вы не можете на него зайти, то Вы без труда сможете скачать бесплатно и без рекламы последние новинки кино, игр, сериалов и прочего у нас, на Rutor.in. Не нужно использовать прокси, чтобы зайти на рутор, достаточно воспользоваться нашим ресурсом. Все новые фильмы, игры, сериалы, книги и музыка за 2013 и 2014 годы через торрент бесплатно. Скачивайте фильмы в хорошем качестве, игры для пк, xbox, playstation без регистрации. У нас вы найдете новые Зарубежные сериалы и Русские сериалы 2013, 2014, 2015 годов. Оставайтесь с нами, качайте любимые фильмы, игры, сериалы, книги и музыку.