img image001 image001 image001 image001 image001 image001 image001 image001 image001 image001 image001 image001 image001 image001 image001

Planets Sun Sun Sun
Статистика раздачи
Автор: Nickolas3434 | Размер: 4.7 ГБ | Добавлен: 13 окт 2015
Раздают: 36    Качают: 54
Скачать торрент
Скачать торрент
Описание торрента

СообщениеДобавлено: 13 окт 2015 



Информация о фильме

Название : Брунгильда во тьме
Оригинальное название : Gokukoku no Brynhildr / Brynhildr in the Darkness
Год выхода : 2014
Жанр : фантастика, драма
Режиссер : Имайдзуми Кэнъити

Описание : В детстве Мураками очень крепко дружил с девочкой по имени Куронеко. Девочка была немного странная: заявляла, что точно знает о существовании пришельцев и даже встречалась с ними. Само собой, никто ей не верил, включая Мураками. И в один прекрасный день она решила доказать парню свою правоту и показать этих самых пришельцев, но происходит несчастный случай, в результате которого Куронеко погибает, а Мураками получает серьезные травмы.

Спустя годы Мураками, будучи членом школьного клуба астрономов, фанатично пытается найти следы присутствия инопланетян, вглядываясь в ночное небо. Он чувствует, что обязан сам доказать факт их существования. И вот однажды в его класс входит новая ученица — точная копия Куронеко…
Страна : Япония
Производство : ARMS
Продолжительность : 13 эп. + спешл, 25 мин.
Перевод: Любительский (одноголосый, закадровый)

Субтитры: nnm-club
Перевод: ElSwanko, kvaking

Озвучка:
- одноголосая закадровая: (муж.) Sad_Kit (Anything-group)

Спешл (эпизод 11.5) переведён субтитрами
Доп. информация: это BDRip - без цензуры
Автор рипа и релиза :
Файл
Формат видео: AVI
Качество : BDRip (Исходник: BDRemux - спасибо antiBILLotic)

Наличие линковки: Нет
Видео: XVID, 720x400 (16:9), 1700 kbps, 23.976 fps, 8bit
Аудио 1: Русский, AC-3, 128 Кбит/с, 48.0 Hz, 2 ch (в составе контейнера)
Аудио 2: Японский, AC-3, 128 Кбит/с, 48.0 Hz, 2 ch (в составе контейнера)
Субтитры (SRT): Русские (внешним фаилом)


01. Пока я ждал тебя
02. Ведьмы
03. Подавители смерти
04. Потерянные воспоминания
05. Астрономические наблюдения
06. Причина её улыбки
07. Капля надежды
08. Последняя зацепка
09. Фальшивые воспоминания
10. Доказательство её жизни
11.5. Много шума из ничего
11. Неожиданное воссоединение
12. Охотники на ведьм
13. То, что я хочу защитить







General
Complete name : E:/Torrent_2/Gokukoku no Brynhildr (2014, XviD BDRip, RUS JAP+SUB) [Stranik 2.0]/01. While I Wait for You.avi
Format : AVI
Format/Info : Audio Video Interleave
File size : 334 MiB
Duration : 23mn 41s
Overall bit rate : 1 971 Kbps
Writing application : VirtualDubMod 1.5.10.3 (build 2550/release)
Writing library : VirtualDubMod build 2550/release

Video #0
ID : 0
Format : MPEG-4 Visual
Format profile : Advanced Simple@L5
Format settings, BVOP : 2
Format settings, QPel : No
Format settings, GMC : No warppoints
Format settings, Matrix : Default (H.263)
Codec ID : XVID
Codec ID/Hint : XviD
Duration : 23mn 41s
Bit rate : 1 700 Kbps
Width : 720 pixels
Height : 400 pixels
Display aspect ratio : 16:9
Frame rate : 23.976 fps
Color space : YUV
Chroma subsampling : 4:2:0
Bit depth : 8 bits
Scan type : Progressive
Compression mode : Lossy
Bits/(Pixel*Frame) : 0.246
Stream size : 288 MiB (86%)
Writing library : XviD 1.2.1 (UTC 2008-12-04)

Audio #1
ID : 1
Format : AC-3
Format/Info : Audio Coding 3
Mode extension : CM (complete main)
Format settings, Endianness : Big
Codec ID : 2000
Duration : 23mn 41s
Bit rate mode : Constant
Bit rate : 128 Kbps
Channel(s) : 2 channels
Channel positions : Front: L R
Sampling rate : 48.0 KHz
Bit depth : 16 bits
Compression mode : Lossy
Stream size : 21.7 MiB (6%)
Alignment : Split accross interleaves
Interleave, duration : 42 ms (1.00 video frame)
Interleave, preload duration : 500 ms

Audio #2
ID : 2
Format : AC-3
Format/Info : Audio Coding 3
Mode extension : CM (complete main)
Format settings, Endianness : Big
Codec ID : 2000
Duration : 23mn 41s
Bit rate mode : Constant
Bit rate : 128 Kbps
Channel(s) : 2 channels
Channel positions : Front: L R
Sampling rate : 48.0 KHz
Bit depth : 16 bits
Compression mode : Lossy
Stream size : 21.7 MiB (6%)
Alignment : Split accross interleaves
Interleave, duration : 42 ms (1.00 video frame)
Interleave, preload duration : 500 ms



Моя максимальная скорость отдачи 100КБ/c
Раздаю с 7:00 до 1:00 по Москве






   Похожие торренты   Торрент   Размер 
В этой теме нет новых непрочитанных сообщений. Брунгильда в кромешной тьме / Gokukoku no Brynhildr [TV] [01 из 13] (2014) WEBRip 720p | AniFilm

45 | 17

350.17 МБ

В этой теме нет новых непрочитанных сообщений. Брунгильда в кромешной тьме / Gokukoku no Brynhildr [TV] [01-03 из 13] (2014) WEBRip 720p | AniFilm

29 | 11

1.02 ГБ

В этой теме нет новых непрочитанных сообщений. Брунгильда в кромешной тьме / Gokukoku no Brynhildr [TV] [01-04 из 13] (2014) WEBRip 720p | AniFilm

50 | 18

1.37 ГБ

В этой теме нет новых непрочитанных сообщений. Брунгильда в кромешной тьме / Gokukoku no Brynhildr [TV] [01-02 из 13] (2014) WEBRip 720p | AniFilm

57 | 21

699.56 МБ

В этой теме нет новых непрочитанных сообщений. Брунгильда во тьме / Темная сторона Брюнхильды / Gokukoku no Brynhildr [TV] [01-13 из 13] (2014) HDTVRip 720p | LE-Production

151 | 49

4.25 ГБ

В этой теме нет новых непрочитанных сообщений. Глубоко во тьме / Deep in the Darkness (2014) BDRip 720p | L2

106 | 25

4.63 ГБ

В этой теме нет новых непрочитанных сообщений. Игра на выживание / No Game No Life [01-12 из 12 + Special] (2014) BDRip от Stranik 2.0 | L2

67 | 12

4.32 ГБ




Вы не можете начинать темы
Вы не можете отвечать на сообщения
Вы не можете редактировать свои сообщения
Вы не можете удалять свои сообщения
Вы не можете добавлять вложения

Перейти:  
Для Мосгорсуда, Роскомнадзора и рекламодателей: mosgorsud-torrent[собачка]yandex.ru
 Вход
ppkBB3cker v.2 © 2008-2014 @ PPK
[ Time : 0.054s | 14 Queries | GZIP : Off ]

Торрент трекер RUTOR.IN, Не можете зайти на rutor.org? Какой новый адрес рутор? Какое зеркало рутор? Не работает rutor.org и зеркала? Тогда наш торрент специально для вас. Rutor.in неофициальное зеркало rutor. В случае если у Вас заблокирован rutor или вдруг Вы не можете на него зайти, то Вы без труда сможете скачать бесплатно и без рекламы последние новинки кино, игр, сериалов и прочего у нас, на Rutor.in. Не нужно использовать прокси, чтобы зайти на рутор, достаточно воспользоваться нашим ресурсом. Все новые фильмы, игры, сериалы, книги и музыка за 2013 и 2014 годы через торрент бесплатно. Скачивайте фильмы в хорошем качестве, игры для пк, xbox, playstation без регистрации. У нас вы найдете новые Зарубежные сериалы и Русские сериалы 2013, 2014, 2015 годов. Оставайтесь с нами, качайте любимые фильмы, игры, сериалы, книги и музыку.