img image001 image001 image001 image001 image001 image001 image001 image001 image001 image001 image001 image001 image001 image001 image001

Planets Sun Sun Sun
Статистика раздачи
Автор: Nickolas3434 | Размер: 1.7 ГБ | Добавлен: 30 окт 2015
Раздают: 140    Качают: 10
Скачать торрент
Скачать торрент
Описание торрента

СообщениеДобавлено: 30 окт 2015 


Информация о фильме
Название: Лихие космические пираты: Бездна Гиперпространства
Оригинальное название: Mouretsu Pirates: Abyss of Hyperspace
Страна: Япония
Год выпуска: 2014 г.
Жанр: приключения, фантастика
Тип: Movie
Продолжительность: 92 мин.
Режиссер: Сато Тацуо
Студия:

Описание: Продолжение истории про лихих космических пиратов. Капитану космического пиратского корабля Бентенмару, Като Марике, исполнилось 17 лет. Начались весенние каникулы перед последним годом обучения в старшей школе. Совмещая роль президента школьного яхт-клуба и капитана пиратского корабля, Марике предстоит решить проблему низкой популярности клуба. Почему яхт-клуб так не популярен? Тут ведь есть полёты и обслуживание космических кораблей, кибервойны со шпионажем, грабёж и вымогательство на пиратском корабле, погони и перестрелки в гиперпространстве, но вот новичков больше не становится, почему? Боятся? И вот, в очередной день каникул срывается уже третье по счету за неделю запланированное задание. Наши герои берутся за новое от старой знакомой, но, желая уйти от преследования, делая сверхсветовой прыжок сквозь гиперпространство, что-то пошло не так...

Перевод: Petrokl
Озвучивание: любительское многоголосое закадровое [Ivaniska & Miori & MelissKa & Lianna Invers & Kristabel & Sora & Lite & HuckMaster'Ok & RedRain* & AkNoLoGiA & Galileosify]
Тайминг: Galileosify
Обложка: RodgerDeLil
Работа со звуком: Galileosify
Релиз от:

Качество: BDRip [SEED]
Тип релиза: Без хардсаба
Формат видео: MP4
Совместимость с бытовыми плеерами: Нет
Видео: x264 (8 bit), 1280x720, 2017 kbps, 23.976 fps
Аудио: [int] AAC, 160 kbps, 48.0 KHz, 2 ch
Аудио 2: [int] AAC, 439 kbps, 48.0 KHz, 6 ch
Код:
General
Complete name               : D:CactusTeam[CactusTeam]_Mouretsu_Pirates_Abyss_of_Hyperspace_[MVO][CactusTeam] Mouretsu Pirates The Movie Abyss of Hyperspace (MVO).mp4
Format                      : MPEG-4
Format profile              : Base Media
Codec ID                    : isom
File size                   : 1.70 GiB
Duration                    : 1h 32mn
Overall bit rate mode       : Variable
Overall bit rate            : 2 621 Kbps
Encoded date                : UTC 2015-10-25 20:50:20
Tagged date                 : UTC 2015-10-25 20:50:20
Writing application         : Yamb 2.1.0.0 [http://yamb.unite-video.com]
Video
ID                          : 1
Format                      : AVC
Format/Info                 : Advanced Video Codec
Format profile              : High@L4
Format settings, CABAC      : Yes
Format settings, ReFrames   : 6 frames
Codec ID                    : avc1
Codec ID/Info               : Advanced Video Coding
Duration                    : 1h 32mn
Bit rate                    : 2 017 Kbps
Maximum bit rate            : 17.0 Mbps
Width                       : 1 280 pixels
Height                      : 720 pixels
Display aspect ratio        : 16:9
Frame rate mode             : Constant
Frame rate                  : 23.976 fps
Color space                 : YUV
Chroma subsampling          : 4:2:0
Bit depth                   : 8 bits
Scan type                   : Progressive
Bits/(Pixel*Frame)          : 0.091
Stream size                 : 1.31 GiB (77%)
Title                       : Video
Language                    : English
Encoded date                : UTC 2014-12-11 10:24:01
Tagged date                 : UTC 2015-10-25 20:54:03
Audio #1
ID                          : 2
Format                      : AAC
Format/Info                 : Advanced Audio Codec
Format profile              : LC
Codec ID                    : 67
Duration                    : 1h 32mn
Bit rate mode               : Variable
Bit rate                    : 160 Kbps
Maximum bit rate            : 215 Kbps
Channel(s)                  : 2 channels
Channel positions           : Front: L R
Sampling rate               : 48.0 KHz
Compression mode            : Lossy
Stream size                 : 106 MiB (6%)
Language                    : Russian
Encoded date                : UTC 2015-10-25 20:52:10
Tagged date                 : UTC 2015-10-25 20:54:03
Audio #2
ID                          : 3
Format                      : AAC
Format/Info                 : Advanced Audio Codec
Format profile              : LC
Codec ID                    : 40
Duration                    : 1h 32mn
Bit rate mode               : Variable
Bit rate                    : 439 Kbps
Maximum bit rate            : 612 Kbps
Channel(s)                  : 2 channels
Channel(s)_Original         : 6 channels
Channel positions           : Front: L C R, Side: L R, LFE
Sampling rate               : 48.0 KHz
Compression mode            : Lossy
Stream size                 : 292 MiB (17%)
Title                       : Audio
Language                    : Japanese
Encoded date                : UTC 2015-10-25 20:53:08
Tagged date                 : UTC 2015-10-25 20:54:03
 




   Похожие торренты   Торрент   Размер 
В этой теме нет новых непрочитанных сообщений. Персона 3 (фильм второй) / Persona 3 the Movie: Midsummer Knight's Dream [Movie] (2014) BDRip 720p | CacrusTeam

24 | 5

1.52 ГБ

В этой теме нет новых непрочитанных сообщений. Бездна / The Abyss (1989) HDTVRip 720p от HQ-ViDEO

242 | 83

7.9 ГБ

В этой теме нет новых непрочитанных сообщений. Бездна / The Abyss (1989) HDTVRip 720p | Специальное Издание / Special Edition

3 | 7

3.82 ГБ

В этой теме нет новых непрочитанных сообщений. Пираты / Hae-jeok: Ba-da-ro gan san-jeok / The Pirates (2014) BDRip 720p от Brazzass

51 | 7

7.91 ГБ

В этой теме нет новых непрочитанных сообщений. Пираты! Банда неудачников / The Pirates! Band of Misfits (2012) BDRip 720p | Лицензия

7 | 4

3.55 ГБ

В этой теме нет новых непрочитанных сообщений. Ледовые пираты / Ледяные пираты / The Ice Pirates (1984) WEB-DLRip | P

257 | 35

1.38 ГБ

В этой теме нет новых непрочитанных сообщений. Пираты побережья / I pirati della costa / Les pirates de la côte / Pirates of the Coast (1960) DVDRip

114 | 9

1.5 ГБ




Вы не можете начинать темы
Вы не можете отвечать на сообщения
Вы не можете редактировать свои сообщения
Вы не можете удалять свои сообщения
Вы не можете добавлять вложения

Перейти:  
Для Мосгорсуда, Роскомнадзора и рекламодателей: mosgorsud-torrent[собачка]yandex.ru
 Вход
ppkBB3cker v.2 © 2008-2014 @ PPK
[ Time : 0.022s | 14 Queries | GZIP : On ]

Торрент трекер RUTOR.IN, Не можете зайти на rutor.org? Какой новый адрес рутор? Какое зеркало рутор? Не работает rutor.org и зеркала? Тогда наш торрент специально для вас. Rutor.in неофициальное зеркало rutor. В случае если у Вас заблокирован rutor или вдруг Вы не можете на него зайти, то Вы без труда сможете скачать бесплатно и без рекламы последние новинки кино, игр, сериалов и прочего у нас, на Rutor.in. Не нужно использовать прокси, чтобы зайти на рутор, достаточно воспользоваться нашим ресурсом. Все новые фильмы, игры, сериалы, книги и музыка за 2013 и 2014 годы через торрент бесплатно. Скачивайте фильмы в хорошем качестве, игры для пк, xbox, playstation без регистрации. У нас вы найдете новые Зарубежные сериалы и Русские сериалы 2013, 2014, 2015 годов. Оставайтесь с нами, качайте любимые фильмы, игры, сериалы, книги и музыку.