img image001 image001 image001 image001 image001 image001 image001 image001 image001 image001 image001 image001 image001 image001 image001

Planets Sun Sun Sun
Статистика раздачи
Автор: Nickolas3434 | Размер: 727.8 МБ | Добавлен: 02 ноя 2015
Раздают: 383    Качают: 23
Скачать торрент
Скачать торрент
Описание торрента

СообщениеДобавлено: 02 ноя 2015 


Информация о фильме
Название: Токийский гуль Джек
Оригинальное название: Tokyo Ghoul: Jack / OVA 東京喰種[トーキョーグール]
Страна: Япония
Год выхода: 2015
Жанр: приключения
Режиссер: Союти Симада
Автор оригинала: Исида Суи / Ishida Sui / 石田スイ
О фильме: Небольшой спин-офф Токийского гуля. Действие происходит за 12 лет до начала событий основного сериала. Главным действующим лицом является Арима Кишо, следователь ДПГ.
Студия:
Продолжительность: OVA (2 эп.), 30 мин.
Перевод: Любительский (двухголосый)
Озвучка: loster01 & Emeri
Субтитры: отсутствуют
Хардсаб: отсутствует
Перевод на русский: Anku & mutagenb
Файл
Качество: BDRip [loster01]
Формат: MKV
Видео: 1280 x 720 (16:9) at 23.976 fps, AVC (x264), High@L3.1, 3000 Kbps avg, 0.136 bit/pixel, 8 bit
Аудио# 1: Rus - 48.0 kHz, AC3, 2 ch, 192 kbps avg
Аудио# 2: Jap - 48.0 kHz, AC3, 2 ch, 192 kbps avg
Релиз от:
Общее
Полное имя : Tokyo.Ghoul.Jack.OVA.720p.BDRip.le-production / Tokyo.Ghoul.Jack.OVA.720p.BDRip.le-production.mkv
Формат : Matroska
Размер файла : 728 Мбайт
Продолжительность : 30 м.
Общий поток : 3385 Кбит/сек
Название фильма : le-production
Дата кодирования : UTC 2015-10-31 16:13:54
Программа кодирования : mkvmerge v8.5.0 ('Vanishing Act') 64bit
Библиотека кодирования : libebml v1.3.1 + libmatroska v1.4.2
Видео
Идентификатор : 1
Формат : AVC
Формат/Информация : Advanced Video Codec
Профиль формата : High@L3.1
Параметр CABAC формата : Да
Параметр ReFrames формата : 4 кадры
Идентификатор кодека : V_MPEG4/ISO/AVC
Продолжительность : 30 м.
Битрейт : 3000 Кбит/сек
Ширина : 1280 пикс.
Высота : 720 пикс.
Соотношение сторон : 16:9
Частота кадров : 23,976 кадр/сек
Цветовое пространство : YUV
Подвыборка цветности : 4:2:0
Битовая глубина : 8 бит
Тип развёртки : Прогрессивная
Бит/(Пиксели*Кадры) : 0.136
Размер потока : 631 Мбайт (87%)
Заголовок : le-production
Библиотека кодирования : x264 core 146 r2538 121396c
Настройки программы : cabac=1 / ref=4 / deblock=1:1:1 / analyse=0x3:0x113 / me=hex / subme=6 / psy=1 / psy_rd=0.40:0.00 / mixed_ref=1 / me_range=16 / chroma_me=1 / trellis=1 / 8x8dct=1 / cqm=0 / deadzone=21,11 / fast_pskip=1 / chroma_qp_offset=-2 / threads=12 / lookahead_threads=2 / sliced_threads=0 / nr=0 / decimate=1 / interlaced=0 / bluray_compat=0 / constrained_intra=0 / bframes=5 / b_pyramid=2 / b_adapt=1 / b_bias=0 / direct=1 / weightb=1 / open_gop=0 / weightp=1 / keyint=250 / keyint_min=23 / scenecut=40 / intra_refresh=0 / rc_lookahead=30 / rc=2pass / mbtree=1 / bitrate=3000 / ratetol=1.0 / qcomp=0.60 / qpmin=0 / qpmax=69 / qpstep=4 / cplxblur=20.0 / qblur=0.5 / vbv_maxrate=14000 / vbv_bufsize=14000 / nal_hrd=none / filler=0 / ip_ratio=1.40 / aq=1:0.60
Язык : Russian
Аудио #1
Идентификатор : 2
Формат : AC-3
Формат/Информация : Audio Coding 3
Расширение режима : CM (complete main)
Идентификатор кодека : A_AC3
Продолжительность : 30 м.
Вид битрейта : Постоянный
Битрейт : 192 Кбит/сек
Канал(ы) : 2 канала(ов)
Расположение каналов : Front: L R
Частота : 48,0 КГц
Битовая глубина : 16 бит
Метод сжатия : С потерями
Размер потока : 41,3 Мбайт (6%)
Заголовок : loster01 & Emeri
Язык : Russian
Аудио #2
Идентификатор : 3
Формат : AC-3
Формат/Информация : Audio Coding 3
Расширение режима : CM (complete main)
Идентификатор кодека : A_AC3
Продолжительность : 30 м.
Вид битрейта : Постоянный
Битрейт : 192 Кбит/сек
Канал(ы) : 2 канала(ов)
Расположение каналов : Front: L R
Частота : 48,0 КГц
Битовая глубина : 16 бит
Метод сжатия : С потерями
Размер потока : 41,3 Мбайт (6%)
Язык : Japanese
01. Jack
02. Pinto





   Похожие торренты   Торрент   Размер 
В этой теме нет новых непрочитанных сообщений. Токийский гуль / Токийский монстр / Tokyo Ghoul [TV] [01-11 из 12] (2014) HDTVRip 720p | LE-Production

45 | 28

4.52 ГБ

В этой теме нет новых непрочитанных сообщений. Токийский гуль / Токийский монстр / Tokyo Ghoul [TV] [01-02 из 12] (2014) HDTVRip 720p | LE-Production

51 | 20

821.8 МБ

В этой теме нет новых непрочитанных сообщений. Токийский гуль / Токийский монстр / Tokyo Ghoul [TV] [01-03 из 12] (2014) HDTVRip 720p | LE-Production

89 | 82

1.17 ГБ

В этой теме нет новых непрочитанных сообщений. Токийский гуль / Токийский монстр / Tokyo Ghoul [TV] [01-05 из 12] (2014) HDTVRip 720p | LE-Production

33 | 37

2.45 ГБ

В этой теме нет новых непрочитанных сообщений. Токийский гуль / Токийский монстр / Tokyo Ghoul [TV] [01-04 из 12] (2014) HDTVRip 720p | LE-Production

14 | 49

1.58 ГБ

В этой теме нет новых непрочитанных сообщений. Токийский гуль / Токийский монстр / Tokyo Ghoul [TV] [01 из 12] (2014) HDTVRip 720p | LE-Production

25 | 10

432.84 МБ

В этой теме нет новых непрочитанных сообщений. Токийский гуль / Токийский монстр / Tokyo Ghoul [TV] [01-12 из 12] (2014) HDTVRip 720p | LE-Production

526 | 104

4.9 ГБ




Вы не можете начинать темы
Вы не можете отвечать на сообщения
Вы не можете редактировать свои сообщения
Вы не можете удалять свои сообщения
Вы не можете добавлять вложения

Перейти:  
Для Мосгорсуда, Роскомнадзора и рекламодателей: mosgorsud-torrent[собачка]yandex.ru
 Вход
ppkBB3cker v.2 © 2008-2014 @ PPK
[ Time : 0.168s | 14 Queries | GZIP : Off ]

Торрент трекер RUTOR.IN, Не можете зайти на rutor.org? Какой новый адрес рутор? Какое зеркало рутор? Не работает rutor.org и зеркала? Тогда наш торрент специально для вас. Rutor.in неофициальное зеркало rutor. В случае если у Вас заблокирован rutor или вдруг Вы не можете на него зайти, то Вы без труда сможете скачать бесплатно и без рекламы последние новинки кино, игр, сериалов и прочего у нас, на Rutor.in. Не нужно использовать прокси, чтобы зайти на рутор, достаточно воспользоваться нашим ресурсом. Все новые фильмы, игры, сериалы, книги и музыка за 2013 и 2014 годы через торрент бесплатно. Скачивайте фильмы в хорошем качестве, игры для пк, xbox, playstation без регистрации. У нас вы найдете новые Зарубежные сериалы и Русские сериалы 2013, 2014, 2015 годов. Оставайтесь с нами, качайте любимые фильмы, игры, сериалы, книги и музыку.