img image001 image001 image001 image001 image001 image001 image001 image001 image001 image001 image001 image001 image001 image001 image001

Planets Sun Sun Sun
Статистика раздачи
Автор: Nickolas3434 | Размер: 4.32 ГБ | Добавлен: 25 ноя 2015
Раздают: 17    Качают: 17
Скачать торрент
Скачать торрент
Описание торрента

СообщениеДобавлено: 25 ноя 2015 


Информация о фильме
Название: Затерянная вселенная
Оригинальное название: Lost Universe
Год выхода: 1997
Жанр: аниме, мультфильм, фантастика, комедия
Режиссер: Чарльз Кэмпбелл
В ролях: Стив Мец, Ларисса Уолкотт, Билл Уайз, Дирк Ван Аллен, Дуглас Тейлор, Камилль Чен, Сара Ричардсон, Соитиро Хоси, Томоко Исимура, Мэгуми Хаясибара
Описание: Когда частный сыщик Милли Ноктюрн попадает на теневой аукцион, ее неприятности только начинаются! Поневоле связав судьбу с Каином Блуривером, помешанным на плащах любителе махать световым мечом, и его помощницей Кэнел — голографической проекцией бортового компьютера Потерянного Корабля «Суордбрейкер», Милли вынуждена хвататься за любое дело, способное принести хоть какой-то барыш.
Но чаще всего этой команде выпадает работа, за которую вообще больше браться некому! За межзвездным сорвиголовой Каином Блуривером охотится криминальный синдикат «Кошмар»: если им удастся уничтожить звездолет «Суордбрейкер», ничто не сможет помешать воцарению во Вселенной лорда Темной Звезды.

Страна: Япония
Продолжительность: 26x ~ 23 мин
Перевод: Профессиональный (многоголосый, закадровый) - MC Entertainment
Файл
Формат: AVI
Качество: DVDRip
Видео: 640x480, (4:3), ~900 Кбит/сек, 23,976 кадра/сек
Аудио: MP3, 2 канала, 128 Кбит/сек, 48,0 КГц

Общее
Полное имя : E:FilmLost Universe (1998)Lost Universe e01 - Лезвие сияющего света.avi
Формат : AVI
Формат/Информация : Audio Video Interleave
Размер файла : 170 Мбайт
Продолжительность : 22 м.
Общий поток : 1052 Кбит/сек
Название фильма : Lost Universe e01 - Лезвие сияющего света
Авторское право : для портала www.uralmix.ru
Видео
Идентификатор : 0
Формат : MPEG-4 Visual
Параметр BVOP формата : 1
Параметр QPel формата : Нет
Параметр GMC формата : Без точки перехода
Параметр матрицы формата : Default (H.263)
Режим смешивания : Сжатый битовый поток
Идентификатор кодека : DX50
Идентификатор кодека/Подсказка : DivX 5
Продолжительность : 22 м.
Битрейт : 914 Кбит/сек
Ширина : 640 пикселей
Высота : 480 пикселей
Соотношение сторон : 4:3
Частота кадров : 23,976 кадра/сек
Цветовое пространство : YUV
Субдискретизация насыщенности : 4:2:0
Битовая глубина : 8 бит
Тип развёртки : Прогрессивная
Метод сжатия : С потерями
Бит/(Пиксели*Кадры) : 0.124
Размер потока : 148 Мбайт (87%)
Библиотека кодирования : DivX 6.8.5 (UTC 2009-08-20)
Аудио
Идентификатор : 1
Формат : MPEG Audio
Версия формата : Version 1
Профиль формата : Layer 3
Режим : Joint stereo
Расширение режима : MS Stereo
Идентификатор кодека : 55
Идентификатор кодека/Подсказка : MP3
Продолжительность : 22 м.
Вид битрейта : Постоянный
Битрейт : 128 Кбит/сек
Каналы : 2 канала
Частота : 48,0 КГц
Метод сжатия : С потерями
Размер потока : 20,7 Мбайт (12%)
Выравнивание : Соединение по промежуткам
Продолжительность промежутка : 42 мс. (1,00 видеокадр)
Время предзагрузки промежутка : 504 мс.
Библиотека кодирования : LAME3.97
Настройки программы : -m j -V 4 -q 2 -lowpass 17 -b 128
Язык : Не определен



   Похожие торренты   Торрент   Размер 
В этой теме нет новых непрочитанных сообщений. Известная Вселенная: С космической скоростью / Known Universe: Speeding Through the Universe (2009) SATRip

0 | 17

551.62 МБ

В этой теме нет новых непрочитанных сообщений. Затерянная колония / Lost Colony / Wraiths of Roanoke (2007) DVDRip от AndrewWhite

32 | 9

1.46 ГБ

В этой теме нет новых непрочитанных сообщений. Вселенная / The Universe [01x09 из 14] (2007) DVDRip

0 | 2

590.32 МБ

В этой теме нет новых непрочитанных сообщений. Вселенная / The Universe [01x13 из 14] (2007) DVDRip

0 | 2

591.72 МБ

В этой теме нет новых непрочитанных сообщений. Вселенная / The Universe [01x11 из 14] (2007) DVDRip

0 | 2

587.2 МБ

В этой теме нет новых непрочитанных сообщений. Вселенная / The Universe [01x07 из 14] (2007)DVDRip

0 | 2

569.17 МБ

В этой теме нет новых непрочитанных сообщений. Вселенная / The Universe [01x12 из 14] (2007) DVDRip

0 | 2

582.65 МБ




Вы не можете начинать темы
Вы не можете отвечать на сообщения
Вы не можете редактировать свои сообщения
Вы не можете удалять свои сообщения
Вы не можете добавлять вложения

Перейти:  
Для Мосгорсуда, Роскомнадзора и рекламодателей: mosgorsud-torrent[собачка]yandex.ru
 Вход
ppkBB3cker v.2 © 2008-2014 @ PPK
[ Time : 0.040s | 15 Queries | GZIP : Off ]

Торрент трекер RUTOR.IN, Не можете зайти на rutor.org? Какой новый адрес рутор? Какое зеркало рутор? Не работает rutor.org и зеркала? Тогда наш торрент специально для вас. Rutor.in неофициальное зеркало rutor. В случае если у Вас заблокирован rutor или вдруг Вы не можете на него зайти, то Вы без труда сможете скачать бесплатно и без рекламы последние новинки кино, игр, сериалов и прочего у нас, на Rutor.in. Не нужно использовать прокси, чтобы зайти на рутор, достаточно воспользоваться нашим ресурсом. Все новые фильмы, игры, сериалы, книги и музыка за 2013 и 2014 годы через торрент бесплатно. Скачивайте фильмы в хорошем качестве, игры для пк, xbox, playstation без регистрации. У нас вы найдете новые Зарубежные сериалы и Русские сериалы 2013, 2014, 2015 годов. Оставайтесь с нами, качайте любимые фильмы, игры, сериалы, книги и музыку.