img image001 image001 image001 image001 image001 image001 image001 image001 image001 image001 image001 image001 image001 image001 image001

Planets Sun Sun Sun
Статистика раздачи
Автор: Nickolas3434 | Размер: 5.33 ГБ | Добавлен: 24 янв 2016
Раздают: 276    Качают: 43
Скачать торрент
Скачать торрент
Описание торрента

СообщениеДобавлено: 24 янв 2016 

Ванпанчмен / One-Punch Man

Перевод: Любительский (одноголосый) JAM
Субтитры: отсутствуют
Хардсаб: отсутствует
Формат: HDTVRip, MP4, H.264, AAC
Страна: Япония
Режиссер: Нацумэ Синго
Жанр: приключения, комедия, фэнтези
Продолжительность: ТВ (12 эп.), 25 мин.
Год выпуска: 2015
Перевод на русский: AleX_MytH, BO3DYX, Reaper
Тайминг и работа со звуком: SunRiZ, Sakuragi_R
Озвучка: JAM
Описание: История повествует о юноше по имени Саитама, который живет в мире, иронично похожем на наш. Ему 25, он лыс и прекрасен, к тому же, силен настолько, что с одного удара аннигилирует все опасности для человечества. Он ищет себя на нелегком жизненном пути, попутно раздавая подзатыльники монстрам и злодеям.
Качество: HDTVRip 720p
Видео: 1280x720 (16:9), 23.976fps, AVC (x264) High@L4.1, ~ 2426 kbps avg, 0.110 bit/pixel
Аудио: 48.0 kHz, AAC, (Front: L R) , 2 ch ~192 Kbps avg
Общее
Полное имя : C:One-Punch_Man_[720p]_[JAM][AniDub]_One-Punch_Man_[01]_[720p_x264_AAC]_[JAM].mp4
Формат : MPEG-4
Профиль формата : Base Media
Идентификатор кодека : isom
Размер файла : 463 Мбайт
Продолжительность : 24 м.
Режим общего битрейта : Переменный
Общий поток : 2622 Кбит/сек
Дата кодирования : UTC 2015-10-04 16:46:38
Дата пометки : UTC 2015-10-04 16:46:38
Программа кодирования : Yamb 2.1.0.0 [http://yamb.unite-video.com]
Видео
Идентификатор : 1
Формат : AVC
Формат/Информация : Advanced Video Codec
Профиль формата : High@L4.1
Параметр CABAC формата : Да
Параметр ReFrames формата : 4 кадра
Идентификатор кодека : avc1
Идентификатор кодека/Информация : Advanced Video Coding
Продолжительность : 24 м.
Битрейт : 2426 Кбит/сек
Максимальный битрейт : 14,0 Мбит/сек
Ширина : 1280 пикселей
Высота : 720 пикселей
Соотношение сторон : 16:9
Режим частоты кадров : Постоянный
Частота кадров : 23,976 кадра/сек
Цветовое пространство : YUV
Субдискретизация насыщенности : 4:2:0
Битовая глубина : 8 бит
Тип развёртки : Прогрессивная
Бит/(Пиксели*Кадры) : 0.110
Размер потока : 428 Мбайт (93%)
Заголовок : 264
Библиотека кодирования : x264 core 129 r2245+729M 1a52e03
Настройки программы : cabac=1 / ref=4 / deblock=1:1:-1 / analyse=0x3:0x113 / me=umh / subme=9 / psy=1 / fade_compensate=0.00 / psy_rd=1.00:0.00 / mixed_ref=1 / me_range=24 / chroma_me=1 / trellis=2 / 8x8dct=1 / cqm=0 / deadzone=21,11 / fast_pskip=1 / chroma_qp_offset=-2 / threads=8 / lookahead_threads=1 / sliced_threads=0 / nr=0 / decimate=1 / interlaced=0 / bluray_compat=0 / constrained_intra=0 / fgo=0 / bframes=9 / b_pyramid=2 / b_adapt=2 / b_bias=0 / direct=1 / weightb=1 / open_gop=0 / weightp=2 / keyint=240 / keyint_min=24 / scenecut=40 / intra_refresh=0 / rc=crf / mbtree=0 / crf=18.5 / qcomp=0.72 / qpmin=0 / qpmax=69 / qpstep=4 / ip_ratio=1.40 / pb_ratio=1.30 / aq=1:0.85
Дата кодирования : UTC 2015-10-04 18:30:21
Дата пометки : UTC 2015-10-04 16:46:57
Цветовой диапазон : Limited
Основные цвета : BT.709
Характеристики трансфера : BT.709
Коэффициенты матрицы : BT.709
Аудио
Идентификатор : 2
Формат : AAC
Формат/Информация : Advanced Audio Codec
Профиль формата : LC
Идентификатор кодека : 40
Продолжительность : 24 м.
Вид битрейта : Переменный
Битрейт : 192 Кбит/сек
Максимальный битрейт : 196 Кбит/сек
Каналы : 2 канала
Расположение каналов : Front: L R
Частота : 48,0 КГц
Метод сжатия : С потерями
Размер потока : 33,9 Мбайт (7%)
Язык : English
Дата кодирования : UTC 2015-10-04 16:46:57
Дата пометки : UTC 2015-10-04 16:46:57








   Похожие торренты   Торрент   Размер 
В этой теме нет новых непрочитанных сообщений. Ванпанчмен / One-Punch Man [01-12 из 12] (2015) HDTVRip 720p | L2, L1

161 | 40

10.24 ГБ

В этой теме нет новых непрочитанных сообщений. Ванпанчмен / One-Punch Man [01-02 из 12] (2015) HDTVRip 720p | L2, L1

0 | 8

1.71 ГБ

В этой теме нет новых непрочитанных сообщений. Ванпанчмен / One-Punch Man [01-04 из 12] (2015) HDTVRip 720p | L2, L1

12 | 7

3.43 ГБ

В этой теме нет новых непрочитанных сообщений. Ванпанчмен / One-Punch Man [01-03 из 12] (2015) HDTVRip 720p | L2, L1

14 | 11

2.58 ГБ

В этой теме нет новых непрочитанных сообщений. Ванпанчмен / One-Punch Man [01-06 из 12] (2015) HDTVRip 720p | L2, L1

14 | 5

5.13 ГБ

В этой теме нет новых непрочитанных сообщений. Ванпанчмен / One-Punch Man [OVA] [1 из 1] (2015) HDTVRip 720p | L1

140 | 5

311.51 МБ

В этой теме нет новых непрочитанных сообщений. Ванпанчмен / One-Punch Man [01-11 из 12] (2015) HDTVRip 720p | L2, L1

130 | 42

9.4 ГБ




Вы не можете начинать темы
Вы не можете отвечать на сообщения
Вы не можете редактировать свои сообщения
Вы не можете удалять свои сообщения
Вы не можете добавлять вложения

Перейти:  
Для Мосгорсуда, Роскомнадзора и рекламодателей: mosgorsud-torrent[собачка]yandex.ru
 Вход
ppkBB3cker v.2 © 2008-2014 @ PPK
[ Time : 1.255s | 16 Queries | GZIP : Off ]

Торрент трекер RUTOR.IN, Не можете зайти на rutor.org? Какой новый адрес рутор? Какое зеркало рутор? Не работает rutor.org и зеркала? Тогда наш торрент специально для вас. Rutor.in неофициальное зеркало rutor. В случае если у Вас заблокирован rutor или вдруг Вы не можете на него зайти, то Вы без труда сможете скачать бесплатно и без рекламы последние новинки кино, игр, сериалов и прочего у нас, на Rutor.in. Не нужно использовать прокси, чтобы зайти на рутор, достаточно воспользоваться нашим ресурсом. Все новые фильмы, игры, сериалы, книги и музыка за 2013 и 2014 годы через торрент бесплатно. Скачивайте фильмы в хорошем качестве, игры для пк, xbox, playstation без регистрации. У нас вы найдете новые Зарубежные сериалы и Русские сериалы 2013, 2014, 2015 годов. Оставайтесь с нами, качайте любимые фильмы, игры, сериалы, книги и музыку.