img image001 image001 image001 image001 image001 image001 image001 image001 image001 image001 image001 image001 image001 image001 image001

Planets Sun Sun Sun
Статистика раздачи
Автор: Nickolas3434 | Размер: 1.25 ГБ | Добавлен: 28 янв 2016
Раздают: 5    Качают: 4
Скачать торрент
Скачать торрент
Описание торрента

СообщениеДобавлено: 28 янв 2016 

Война в Астериске / Gakusen Toshi Asterisk / The Asterisk War

Перевод: Любительский (многоголосый закадровый)
Субтитры: отсутствуют
Хардсаб: отсутствует
Формат: HDTVRip, MP4, H.264, AAC
Страна: Япония
Режиссер: Оно Манабу
Жанр: приключения
Продолжительность: ТВ (12 эп.), 25 мин.
Год выпуска: 2015
Озвучка: Ancord, OSKIKt, Nika Lenina, Jade

Студия:

Описание: Амагири Аято, новый переведенный ученик в ученическом городе на воде, "Рикке" или который все называют "Астериск".
Что это за город, почему его создали для выдающихся учеников? Что там ищет Аято и кто населяет этот остров....смотрите и узнаете.




Видео: 1280x720р (16:9), 23.976fps, AVC (x264) , ~ 3 255 kbps avg,0.147 bit/pixel
Аудио: 48.0 kHz, AAC, (Front: L R) , 2 ch ~192Kbps avg

General
Complete name : E:\DOWNLOADS\[AniDub]_Gakusen_Toshi_Asterisk_[720p]_[MVO]\[AniDub]_Gakusen_Toshi_Asterisk_[01]_[720p_x264_Aac]_[Ancord_OSLIKt_NikaLenina_Jade].mp4
Format : MPEG-4
Format profile : Base Media
Codec ID : isom
File size : 589 MiB
Duration : 23mn 51s
Overall bit rate mode : Variable
Overall bit rate : 3 451 Kbps
Encoded date : UTC 2015-10-05 17:51:47
Tagged date : UTC 2015-10-05 17:51:47
Writing application : Yamb 2.1.0.0 [http://yamb.unite-video.com]

Video
ID : 1
Format : AVC
Format/Info : Advanced Video Codec
Format profile :
Format settings, CABAC : Yes
Format settings, ReFrames : 4 frames
Codec ID : avc1
Codec ID/Info : Advanced Video Coding
Duration : 23mn 51s
Bit rate mode : Constant
Bit rate : 3 255 Kbps
Nominal bit rate : 3 808 Kbps / 3 808 Kbps
Maximum bit rate : 6 500 Kbps
Width : 1 280 pixels
Height : 720 pixels
Display aspect ratio : 16:9
Frame rate mode : Constant
Frame rate : 23.976 fps
Standard : NTSC
Color space : YUV
Chroma subsampling : 4:2:0
Bit depth : 8 bits
Scan type : Progressive
Bits/(Pixel*Frame) : 0.147
Stream size : 556 MiB (94%)
Title : Ì
Writing library : x264 core 136
Encoding settings : cabac=1 / ref=4 / deblock=1:0:0 / analyse=0x1:0x111 / me=hex / subme=7 / psy=1 / psy_rd=1.00:0.00 / mixed_ref=1 / me_range=16 / chroma_me=1 / trellis=1 / 8x8dct=0 / cqm=0 / deadzone=21,11 / fast_pskip=1 / chroma_qp_offset=-2 / threads=12 / lookahead_threads=2 / sliced_threads=0 / slices=1 / nr=0 / decimate=1 / interlaced=0 / bluray_compat=0 / stitchable=1 / constrained_intra=0 / bframes=3 / b_pyramid=0 / b_adapt=1 / b_bias=0 / direct=1 / weightb=1 / open_gop=0 / weightp=1 / keyint=48 / keyint_min=25 / scenecut=0 / intra_refresh=0 / rc_lookahead=40 / rc=cbr / mbtree=1 / bitrate=3808 / ratetol=1.0 / qcomp=0.60 / qpmin=0 / qpmax=69 / qpstep=4 / vbv_maxrate=3808 / vbv_bufsize=3808 / nal_hrd=cbr / ip_ratio=1.40 / aq=1:1.00
Encoded date : UTC 2015-10-05 17:51:47
Tagged date : UTC 2015-10-05 17:51:56
Color primaries : BT.709
Transfer characteristics : BT.709
Matrix coefficients : BT.709
Color range : Limited

Audio
ID : 2
Format : AAC
Format/Info : Advanced Audio Codec
Format profile : LC
Codec ID : 40
Duration : 23mn 51s
Bit rate mode : Variable
Bit rate : 192 Kbps
Maximum bit rate : 196 Kbps
Channel(s) : 2 channels
Channel positions : Front: L R
Sampling rate : 48.0 KHz
Compression mode : Lossy
Stream size : 32.8 MiB (6%)
Language : Russian
Encoded date : UTC 2015-10-05 17:51:54
Tagged date : UTC 2015-10-05 17:51:56

Внимание! Раздача ведётся путём добавления новых серий; при каждом добавлении создётся новый торрент. Чтобы начать докачку новой серии, пользователям необходимо сделать следующее:
(1) остановить скачивание,
(2) удалить старый торрент у себя из клиента (старые серии удалять не надо),
(3) скачать новый торрент и запустить его у себя в клиенте вместо старого, при этом указать клиенту путь в старую папку куда и должно происходить скачивание новых серий.

Ваш клиент при этом должен произвести хеширование (проверку) старой папки (если не производит сам - помогите ему сделать это), и будет докачивать только те серии которых у вас ещё нет. Старые серии при этом не удаляются, а продолжают раздаваться!

Eсли вы уже удалили старые серии, то предотвратить повторную закачку старых серий можно, отжав галочку в соответсвующих местах при запуске нового торрента. По возможности, желательно не удалять старые серии как можно дольше чтобы релизёр не столько продолжал раздавать старые серии, а смог сконцентрироваться на новых.












   Похожие торренты   Торрент   Размер 
В этой теме нет новых непрочитанных сообщений. Боевая академия города Астериск / Gakusen Toshi Asterisk (Оно Манабу) [TV] [3 из 12] [RAW] [RUS] [2015, приключения, фэнтези, школа, HDTVRip] [720p]

3 | 2

1.05 ГБ

В этой теме нет новых непрочитанных сообщений. Боевая академия города Астериск / Gakusen Toshi Asterisk / The Asterisk War [s01x01-12 из 12] (2015) WEBRip-1080p | L

58 | 54

6.72 ГБ

В этой теме нет новых непрочитанных сообщений. Боевая академия города Астериск / Gakusen Toshi Asterisk / The Asterisk War [s02x01-12 из 12] (2016) WEBRip-1080p | L2

67 | 54

6.73 ГБ

В этой теме нет новых непрочитанных сообщений. Боевая академия города Астериск / Gakusen Toshi Asterisk [01 из 12] (2015) WEBRip 720p от AniFilm | L2

5 | 16

2.39 ГБ

В этой теме нет новых непрочитанных сообщений. Боевая академия города Астериск / Gakusen Toshi Asterisk [01 из 12] (2015) WEBRip 720p от AniFilm | L2

36 | 9

619.08 МБ

В этой теме нет новых непрочитанных сообщений. Боевая академия города Астериск / Gakusen Toshi Asterisk [01 из 12] (2015) WEBRip 720p от AniFilm | L2

44 | 11

1.78 ГБ

В этой теме нет новых непрочитанных сообщений. Боевая академия города Астериск / Gakusen Toshi Asterisk [01-02 из 12] (2015) WEBRip 720p от AniFilm | L2

45 | 40

1.19 ГБ




Вы не можете начинать темы
Вы не можете отвечать на сообщения
Вы не можете редактировать свои сообщения
Вы не можете удалять свои сообщения
Вы не можете добавлять вложения

Перейти:  
Для Мосгорсуда, Роскомнадзора и рекламодателей: mosgorsud-torrent[собачка]yandex.ru
 Вход
ppkBB3cker v.2 © 2008-2014 @ PPK
[ Time : 3.584s | 16 Queries | GZIP : Off ]

Торрент трекер RUTOR.IN, Не можете зайти на rutor.org? Какой новый адрес рутор? Какое зеркало рутор? Не работает rutor.org и зеркала? Тогда наш торрент специально для вас. Rutor.in неофициальное зеркало rutor. В случае если у Вас заблокирован rutor или вдруг Вы не можете на него зайти, то Вы без труда сможете скачать бесплатно и без рекламы последние новинки кино, игр, сериалов и прочего у нас, на Rutor.in. Не нужно использовать прокси, чтобы зайти на рутор, достаточно воспользоваться нашим ресурсом. Все новые фильмы, игры, сериалы, книги и музыка за 2013 и 2014 годы через торрент бесплатно. Скачивайте фильмы в хорошем качестве, игры для пк, xbox, playstation без регистрации. У нас вы найдете новые Зарубежные сериалы и Русские сериалы 2013, 2014, 2015 годов. Оставайтесь с нами, качайте любимые фильмы, игры, сериалы, книги и музыку.