img image001 image001 image001 image001 image001 image001 image001 image001 image001 image001 image001 image001 image001 image001 image001

Planets Sun Sun Sun
Статистика раздачи
Автор: Nickolas3434 | Размер: 5.3 ГБ | Добавлен: 28 янв 2016
Раздают: 11    Качают: 3
Скачать торрент
Скачать торрент
Описание торрента

СообщениеДобавлено: 28 янв 2016 

Последний серафим / Owari no Seraph / Seraph of the End / 終わりのセラフ

Перевод: Любительский (многоголосый, закадровый)
Субтитры: отсутствуют
Хардсаб: отсутствует
Формат: HDTVRip, MP4, H.264, AAC
Страна: Япония
Режиссер: Токудо Дайсукэ
Жанр: приключения, мистика
Продолжительность: ТВ (12 эп. + спэшлы), 25 мин.
Год выпуска: 2015
Озвучка: Ancord, Cuba77, Trina_D, Kiara_laine

Студия:

Описание: Однажды на Земле появился вирус, убивший всех людей старше тринадцати лет. Одновременно с этим из недр земли объявились вампиры, решившие поработить человечество. С Хакуя Юичиро и остальными детьми из приюта для сирот они обращаются, как со скотом. Но даже в плену Юичиро не теряет надежды. Он мечтает об убийстве вампиров. Об убийстве ВСЕХ вампиров.



Видео: 1280x720р (16:9), 23,976fps, AVC (x264) , ~ 1 799 kbps avg, 0.081 bit/pixel
Аудио: 48.0 kHz, AAC, (Front: L R) , 2 ch ~192Kbps avg

General
Complete name : E:\[AniDub]_Owari_no_Seraph_[720p]_[MVO]\[AniDub]_Owari_no_Seraph_[01]_[720p_x264_Aac]_[MVO].mp4
Format : MPEG-4
Format profile : Base Media
Codec ID : isom
File size : 342 MiB
Duration : 23mn 59s
Overall bit rate mode : Variable
Overall bit rate : 1 995 Kbps
Encoded date : UTC 2015-04-05 23:19:05
Tagged date : UTC 2015-04-05 23:19:05

Video
ID : 1
Format : AVC
Format/Info : Advanced Video Codec
Format profile :
Format settings, CABAC : Yes
Format settings, ReFrames : 4 frames
Codec ID : avc1
Codec ID/Info : Advanced Video Coding
Duration : 23mn 59s
Bit rate : 1 799 Kbps
Maximum bit rate : 13.2 Mbps
Width : 1 280 pixels
Height : 720 pixels
Display aspect ratio : 16:9
Frame rate mode : Constant
Frame rate : 23.976 fps
Color space : YUV
Chroma subsampling : 4:2:0
Bit depth : 8 bits
Scan type : Progressive
Bits/(Pixel*Frame) : 0.081
Stream size : 309 MiB (90%)
Title : 264
Writing library : x264 core 129 r2245+729M 1a52e03
Encoding settings : cabac=1 / ref=4 / deblock=1:1:-1 / analyse=0x3:0x113 / me=umh / subme=9 / psy=1 / fade_compensate=0.00 / psy_rd=1.00:0.00 / mixed_ref=1 / me_range=24 / chroma_me=1 / trellis=2 / 8x8dct=1 / cqm=0 / deadzone=21,11 / fast_pskip=1 / chroma_qp_offset=-2 / threads=8 / lookahead_threads=1 / sliced_threads=0 / nr=0 / decimate=1 / interlaced=0 / bluray_compat=0 / constrained_intra=0 / fgo=0 / bframes=9 / b_pyramid=2 / b_adapt=2 / b_bias=0 / direct=1 / weightb=1 / open_gop=0 / weightp=2 / keyint=240 / keyint_min=24 / scenecut=40 / intra_refresh=0 / rc=crf / mbtree=0 / crf=18.5 / qcomp=0.72 / qpmin=0 / qpmax=69 / qpstep=4 / ip_ratio=1.40 / pb_ratio=1.30 / aq=1:0.85
Encoded date : UTC 2015-04-04 20:43:37
Tagged date : UTC 2015-04-05 23:19:38
Color primaries : BT.709
Transfer characteristics : BT.709
Matrix coefficients : BT.709
Color range : Limited

Audio
ID : 2
Format : AAC
Format/Info : Advanced Audio Codec
Format profile : LC
Codec ID : 40
Duration : 23mn 59s
Bit rate mode : Variable
Bit rate : 192 Kbps
Maximum bit rate : 196 Kbps
Channel(s) : 2 channels
Channel positions : Front: L R
Sampling rate : 48.0 KHz
Compression mode : Lossy
Stream size : 33.0 MiB (10%)
Language : Russian
Encoded date : UTC 2015-04-05 23:19:38
Tagged date : UTC 2015-04-05 23:19:38

Внимание! Раздача ведётся путём добавления новых серий; при каждом добавлении создётся новый торрент. Чтобы начать докачку новой серии, пользователям необходимо сделать следующее:
(1) остановить скачивание,
(2) удалить старый торрент у себя из клиента (старые серии удалять не надо),
(3) скачать новый торрент и запустить его у себя в клиенте вместо старого, при этом указать клиенту путь в старую папку куда и должно происходить скачивание новых серий.

Ваш клиент при этом должен произвести хеширование (проверку) старой папки (если не производит сам - помогите ему сделать это), и будет докачивать только те серии которых у вас ещё нет. Старые серии при этом не удаляются, а продолжают раздаваться!

Eсли вы уже удалили старые серии, то предотвратить повторную закачку старых серий можно, отжав галочку в соответсвующих местах при запуске нового торрента. По возможности, желательно не удалять старые серии как можно дольше чтобы релизёр не столько продолжал раздавать старые серии, а смог сконцентрироваться на новых.











   Похожие торренты   Торрент   Размер 
В этой теме нет новых непрочитанных сообщений. Последний Серафим: Битва в Ногое / Owari no Seraph: Nagoya Kessen-hen (Токудо Дайсукэ) [TV-2] [01-12 из 12] [RAW] [RUS(int), JAP+SUB] [2015 г, приключения, мистика, HDTVRip] [720p]

35 | 2

4.86 ГБ

В этой теме нет новых непрочитанных сообщений. Последний Серафим / Owari no Seraph [01-12 из 12] (2015) HDTVRip 720p | AniDub

745 | 131

4.57 ГБ

В этой теме нет новых непрочитанных сообщений. Последний Серафим ТВ-1 / Owari no Seraph TV-1 [01-13 из 13] (2015) HDTVRip 720p | AlFair Studio

124 | 32

4.26 ГБ

В этой теме нет новых непрочитанных сообщений. Последний Серафим / Owari no Seraph [01-12 из 12] (2015) HDTVRip 720p | SHIZA Project

486 | 203

4.87 ГБ

В этой теме нет новых непрочитанных сообщений. Последний Серафим 2 / Owari no Seraph: Nagoya Kessen-hen [TV-2] [01-12 из 12] (2015) HDTVRip 720p | AniFilm

141 | 27

4.86 ГБ

В этой теме нет новых непрочитанных сообщений. Последний Серафим 2 / Owari no Seraph: Nagoya Kessen-hen [TV-2] [01-11 из 12] (2015) HDTVRip 720p | AniFilm

30 | 2

4.43 ГБ

В этой теме нет новых непрочитанных сообщений. Последний Серафим TV2 / Owari no Seraph - Nagoya Kessen Hen [S02] (2015) HDTVRip 720p | AniDub, SHIZA Project

222 | 185

5.28 ГБ




Вы не можете начинать темы
Вы не можете отвечать на сообщения
Вы не можете редактировать свои сообщения
Вы не можете удалять свои сообщения
Вы не можете добавлять вложения

Перейти:  
Для Мосгорсуда, Роскомнадзора и рекламодателей: mosgorsud-torrent[собачка]yandex.ru
 Вход
ppkBB3cker v.2 © 2008-2014 @ PPK
[ Time : 0.110s | 15 Queries | GZIP : Off ]

Торрент трекер RUTOR.IN, Не можете зайти на rutor.org? Какой новый адрес рутор? Какое зеркало рутор? Не работает rutor.org и зеркала? Тогда наш торрент специально для вас. Rutor.in неофициальное зеркало rutor. В случае если у Вас заблокирован rutor или вдруг Вы не можете на него зайти, то Вы без труда сможете скачать бесплатно и без рекламы последние новинки кино, игр, сериалов и прочего у нас, на Rutor.in. Не нужно использовать прокси, чтобы зайти на рутор, достаточно воспользоваться нашим ресурсом. Все новые фильмы, игры, сериалы, книги и музыка за 2013 и 2014 годы через торрент бесплатно. Скачивайте фильмы в хорошем качестве, игры для пк, xbox, playstation без регистрации. У нас вы найдете новые Зарубежные сериалы и Русские сериалы 2013, 2014, 2015 годов. Оставайтесь с нами, качайте любимые фильмы, игры, сериалы, книги и музыку.