img image001 image001 image001 image001 image001 image001 image001 image001 image001 image001 image001 image001 image001 image001 image001

Planets Sun Sun Sun
Статистика раздачи
Автор: Nickolas3434 | Размер: 818.7 МБ | Добавлен: 28 янв 2016
Раздают: 1    Качают: 1
Скачать торрент
Скачать торрент
Описание торрента

СообщениеДобавлено: 28 янв 2016 

Импульс Валькирии: Русалка / Valkyrie Drive / Valkyrie Drive Mermaid / ヴァルキリードライヴ マーメイド

Перевод: Любительский (двухголосый)
Субтитры: отсутствуют
Хардсаб: отсутствует
Формат: HDTVRip, MP4, H.264, AAC-LC
Страна: Япония
Режиссер: Канэко Хираку
Жанр: приключения, этти, сёдзё-ай
Продолжительность: ТВ (>12 эп.), 25 мин.
Год выпуска: 2015
Озвучка: Demetra, Esther

Студия:

Описание: На пяти островах искусственного происхождения разгорается настоящее боевое состязание между юными красотками на любой вкус. Всё начинается, когда "русалка" по имени Мамори, отправляется на один из таких островов и сталкивается с сильной и волевой Мирэй при весьма необычных обстоятельствах: Мамори подвергается нападению врага, и Мирэй её спасает. Если бы их первая встреча на этом и закончилась, девушки ещё могли бы разойтись в разные стороны или познакомиться и стать хорошими подругами, однако судьба распорядилась иначе, и между новыми знакомыми образовались куда более прочные узы.

Когда враг, напавший на Мамори, не смирился с поражением, и девушки оказались загнанными в угол, Мирэй неожиданно поцеловала Мамори и тем самым спасла положение. Мамори под действием поцелуя превратилась в могущественный меч, с помощью которого Мирэй без особого труда победила врагов. Теперь они - боевая пара, которая никого не боится и может противостоять любому, кто решит покуситься на безопасность Мамори или Мирэй. Осталось только привыкнуть к таким отношением и разобраться в новых чувствах, которые незамедлительно начинают расцветать между девушками.




Видео: 1280x720р (16:9), 23,976fps, AVC (x264) , ~ 2 290 kbps avg, 0.104 bit/pixel
Аудио: 48.0 kHz, AAC-LC, (Front: L R) , 2 ch ~192Kbps avg

General
Complete name : E:\DOWNLOADS\[AniDub]_Valkyrie_Drive_Mermaid_[720p]_[Demetra_Esther]\[AniDub]_Valkyrie_Drive_Mermaid_[01]_[720p_x264_Aac]_[Demetra_Esther].mp4
Format : MPEG-4
Format profile : Base Media
Codec ID : isom
File size : 427 MiB
Duration : 24mn 0s
Overall bit rate mode : Variable
Overall bit rate : 2 486 Kbps
Encoded date : UTC 2015-10-14 00:44:38
Tagged date : UTC 2015-10-14 00:44:38
Writing application : Yamb 2.1.0.0 [http://yamb.unite-video.com]

Video
ID : 1
Format : AVC
Format/Info : Advanced Video Codec
Format profile :
Format settings, CABAC : Yes
Format settings, ReFrames : 4 frames
Codec ID : avc1
Codec ID/Info : Advanced Video Coding
Duration : 24mn 0s
Bit rate : 2 290 Kbps
Maximum bit rate : 10.8 Mbps
Width : 1 280 pixels
Height : 720 pixels
Display aspect ratio : 16:9
Frame rate mode : Constant
Frame rate : 23.976 fps
Color space : YUV
Chroma subsampling : 4:2:0
Bit depth : 8 bits
Scan type : Progressive
Bits/(Pixel*Frame) : 0.104
Stream size : 393 MiB (92%)
Title : 264
Writing library : x264 core 129 r2245+729M 1a52e03
Encoding settings : cabac=1 / ref=4 / deblock=1:1:-1 / analyse=0x3:0x113 / me=umh / subme=9 / psy=1 / fade_compensate=0.00 / psy_rd=1.00:0.00 / mixed_ref=1 / me_range=24 / chroma_me=1 / trellis=2 / 8x8dct=1 / cqm=0 / deadzone=21,11 / fast_pskip=1 / chroma_qp_offset=-2 / threads=8 / lookahead_threads=1 / sliced_threads=0 / nr=0 / decimate=1 / interlaced=0 / bluray_compat=0 / constrained_intra=0 / fgo=0 / bframes=9 / b_pyramid=2 / b_adapt=2 / b_bias=0 / direct=1 / weightb=1 / open_gop=0 / weightp=2 / keyint=240 / keyint_min=24 / scenecut=40 / intra_refresh=0 / rc=crf / mbtree=0 / crf=18.5 / qcomp=0.72 / qpmin=0 / qpmax=69 / qpstep=4 / ip_ratio=1.40 / pb_ratio=1.30 / aq=1:0.85
Encoded date : UTC 2015-10-10 21:54:53
Tagged date : UTC 2015-10-14 00:44:40
Color primaries : BT.709
Transfer characteristics : BT.709
Matrix coefficients : BT.709
Color range : Limited

Audio
ID : 2
Format : AAC
Format/Info : Advanced Audio Codec
Format profile : LC
Codec ID : 40
Duration : 24mn 0s
Bit rate mode : Variable
Bit rate : 192 Kbps
Maximum bit rate : 196 Kbps
Channel(s) : 2 channels
Channel positions : Front: L R
Sampling rate : 48.0 KHz
Compression mode : Lossy
Stream size : 33.0 MiB (8%)
Language : Russian
Encoded date : UTC 2015-10-14 00:44:39
Tagged date : UTC 2015-10-14 00:44:40

Внимание! Раздача ведётся путём добавления новых серий; при каждом добавлении создётся новый торрент. Чтобы начать докачку новой серии, пользователям необходимо сделать следующее:
(1) остановить скачивание,
(2) удалить старый торрент у себя из клиента (старые серии удалять не надо),
(3) скачать новый торрент и запустить его у себя в клиенте вместо старого, при этом указать клиенту путь в старую папку куда и должно происходить скачивание новых серий.

Ваш клиент при этом должен произвести хеширование (проверку) старой папки (если не производит сам - помогите ему сделать это), и будет докачивать только те серии которых у вас ещё нет. Старые серии при этом не удаляются, а продолжают раздаваться!

Eсли вы уже удалили старые серии, то предотвратить повторную закачку старых серий можно, отжав галочку в соответсвующих местах при запуске нового торрента. По возможности, желательно не удалять старые серии как можно дольше чтобы релизёр не столько продолжал раздавать старые серии, а смог сконцентрироваться на новых.












   Похожие торренты   Торрент   Размер 
В этой теме нет новых непрочитанных сообщений. Импульс Валькирии: Русалка / Valkyrie Drive: Mermaid (Канэко Хираку) [TV-1] [1-12 из 12] [AnimeVost] [RAW] [RUS] [2015 г., приключения, HDTVRip] [720p]

16 | 27

6.01 ГБ

В этой теме нет новых непрочитанных сообщений. Сила Валькирии: Русалочка / Valkyrie Drive: Mermaid [TV] [01 из 12] (2015) HDTVRip 720p | AniFilm

39 | 13

1.71 ГБ

В этой теме нет новых непрочитанных сообщений. Сила Валькирии: Русалочка / Valkyrie Drive: Mermaid [TV] [01 из 12] (2015) HDTVRip 720p | AniFilm

61 | 14

1.29 ГБ

В этой теме нет новых непрочитанных сообщений. Сила Валькирии: Русалочка / Valkyrie Drive: Mermaid [TV] [01 из 12] (2015) HDTVRip 720p | AniFilm

40 | 10

2.12 ГБ

В этой теме нет новых непрочитанных сообщений. Сила Валькирии: Русалочка / Valkyrie Drive: Mermaid [TV] [01 из 12] (2015) HDTVRip 720p | AniFilm

33 | 20

2.92 ГБ

В этой теме нет новых непрочитанных сообщений. Сила Валькирии: Русалочка / Valkyrie Drive: Mermaid [TV] [01 из 12] (2015) HDTVRip 720p | AniFilm

16 | 13

2.53 ГБ

В этой теме нет новых непрочитанных сообщений. Сила Валькирии: Русалочка / Valkyrie Drive: Mermaid [TV] [01 из 12] (2015) HDTVRip 720p | AniFilm

167 | 51

891.72 МБ




Вы не можете начинать темы
Вы не можете отвечать на сообщения
Вы не можете редактировать свои сообщения
Вы не можете удалять свои сообщения
Вы не можете добавлять вложения

Перейти:  
Для Мосгорсуда, Роскомнадзора и рекламодателей: mosgorsud-torrent[собачка]yandex.ru
 Вход
ppkBB3cker v.2 © 2008-2014 @ PPK
[ Time : 0.031s | 15 Queries | GZIP : Off ]

Торрент трекер RUTOR.IN, Не можете зайти на rutor.org? Какой новый адрес рутор? Какое зеркало рутор? Не работает rutor.org и зеркала? Тогда наш торрент специально для вас. Rutor.in неофициальное зеркало rutor. В случае если у Вас заблокирован rutor или вдруг Вы не можете на него зайти, то Вы без труда сможете скачать бесплатно и без рекламы последние новинки кино, игр, сериалов и прочего у нас, на Rutor.in. Не нужно использовать прокси, чтобы зайти на рутор, достаточно воспользоваться нашим ресурсом. Все новые фильмы, игры, сериалы, книги и музыка за 2013 и 2014 годы через торрент бесплатно. Скачивайте фильмы в хорошем качестве, игры для пк, xbox, playstation без регистрации. У нас вы найдете новые Зарубежные сериалы и Русские сериалы 2013, 2014, 2015 годов. Оставайтесь с нами, качайте любимые фильмы, игры, сериалы, книги и музыку.