img image001 image001 image001 image001 image001 image001 image001 image001 image001 image001 image001 image001 image001 image001 image001

Planets Sun Sun Sun
Статистика раздачи
Автор: Nickolas3434 | Размер: 965 МБ | Добавлен: 28 янв 2016
Раздают: 0    Качают: 0
Скачать торрент
Скачать торрент
Описание торрента

СообщениеДобавлено: 28 янв 2016 

Ванпанчмен / One-Punch Man / ワンパンマン

Перевод: Профессиональный (многоголосый, закадровый)
Субтитры: отсутствуют
Хардсаб: отсутствует
Формат: HDTVRip, MP4, H.264, AAC
Страна: Япония
Режиссер: Нацумэ Синго
Жанр: приключения, комедия, фэнтези
Продолжительность: ТВ (>12 эп.), 25 мин.
Год выпуска: 2015
Озвучка: KANSAI

Студия:

Описание: История повествует о юноше по имени Саитама, который живет в мире, иронично похожем на наш. Ему 25, он лыс и прекрасен, к тому же, силен настолько, что с одного удара аннигилирует все опасности для человечества. Он ищет себя на нелегком жизненном пути, попутно раздавая подзатыльники монстрам и злодеям.



Видео: 1 280x720 (16:9), 23.976fps, AVC (x264) , ~ 2 426 kbps avg, 0.110 bit/pixel
Аудио: 48.0 kHz, AAC, (Front: L R) , 2 ch ~224Kbps avg

General
Complete name : E:\DOWNLOADS\One-Punch Man [KANSAI]\One-Punch Man.s01e01.HDTVRip.720p.Kansai.mp4
Format : MPEG-4
Format profile : Base Media
Codec ID : isom
File size : 468 MiB
Duration : 24mn 39s
Overall bit rate mode : Variable
Overall bit rate : 2 654 Kbps
Encoded date : UTC 2015-10-05 01:33:37
Tagged date : UTC 2015-10-05 01:33:37
Writing application : Yamb 2.1.0.0 [http://yamb.unite-video.com]

Video
ID : 1
Format : AVC
Format/Info : Advanced Video Codec
Format profile :
Format settings, CABAC : Yes
Format settings, ReFrames : 4 frames
Codec ID : avc1
Codec ID/Info : Advanced Video Coding
Duration : 24mn 39s
Bit rate : 2 426 Kbps
Maximum bit rate : 14.0 Mbps
Width : 1 280 pixels
Height : 720 pixels
Display aspect ratio : 16:9
Frame rate mode : Constant
Frame rate : 23.976 fps
Color space : YUV
Chroma subsampling : 4:2:0
Bit depth : 8 bits
Scan type : Progressive
Bits/(Pixel*Frame) : 0.110
Stream size : 428 MiB (91%)
Title : 264
Writing library : x264 core 129 r2245+729M 1a52e03
Encoding settings : cabac=1 / ref=4 / deblock=1:1:-1 / analyse=0x3:0x113 / me=umh / subme=9 / psy=1 / fade_compensate=0.00 / psy_rd=1.00:0.00 / mixed_ref=1 / me_range=24 / chroma_me=1 / trellis=2 / 8x8dct=1 / cqm=0 / deadzone=21,11 / fast_pskip=1 / chroma_qp_offset=-2 / threads=8 / lookahead_threads=1 / sliced_threads=0 / nr=0 / decimate=1 / interlaced=0 / bluray_compat=0 / constrained_intra=0 / fgo=0 / bframes=9 / b_pyramid=2 / b_adapt=2 / b_bias=0 / direct=1 / weightb=1 / open_gop=0 / weightp=2 / keyint=240 / keyint_min=24 / scenecut=40 / intra_refresh=0 / rc=crf / mbtree=0 / crf=18.5 / qcomp=0.72 / qpmin=0 / qpmax=69 / qpstep=4 / ip_ratio=1.40 / pb_ratio=1.30 / aq=1:0.85
Encoded date : UTC 2015-10-04 18:30:21
Tagged date : UTC 2015-10-05 01:33:38
Color primaries : BT.709
Transfer characteristics : BT.709
Matrix coefficients : BT.709
Color range : Limited

Audio
ID : 2
Format : AAC
Format/Info : Advanced Audio Codec
Format profile : LC
Codec ID : 40
Duration : 24mn 39s
Bit rate mode : Variable
Bit rate : 224 Kbps
Maximum bit rate : 230 Kbps
Channel(s) : 2 channels
Channel positions : Front: L R
Sampling rate : 48.0 KHz
Compression mode : Lossy
Stream size : 39.5 MiB (8%)
Title : Kansai
Language : Russian
Encoded date : UTC 2015-10-05 01:33:38
Tagged date : UTC 2015-10-05 01:33:38

Внимание! Раздача ведётся путём добавления новых серий; при каждом добавлении создётся новый торрент. Чтобы начать докачку новой серии, пользователям необходимо сделать следующее:
(1) остановить скачивание,
(2) удалить старый торрент у себя из клиента (старые серии удалять не надо),
(3) скачать новый торрент и запустить его у себя в клиенте вместо старого, при этом указать клиенту путь в старую папку куда и должно происходить скачивание новых серий.

Ваш клиент при этом должен произвести хеширование (проверку) старой папки (если не производит сам - помогите ему сделать это), и будет докачивать только те серии которых у вас ещё нет. Старые серии при этом не удаляются, а продолжают раздаваться!

Eсли вы уже удалили старые серии, то предотвратить повторную закачку старых серий можно, отжав галочку в соответсвующих местах при запуске нового торрента. По возможности, желательно не удалять старые серии как можно дольше чтобы релизёр не столько продолжал раздавать старые серии, а смог сконцентрироваться на новых.











   Похожие торренты   Торрент   Размер 
В этой теме нет новых непрочитанных сообщений. Ванпанчмен / One-Punch Man (Нацумэ Синго) [TV] [8 из 12] [RAW] [RUS] [2015, приключения, комедия, фэнтези, HDTVRip] [720p]

0 | 1

5.12 ГБ

В этой теме нет новых непрочитанных сообщений. Ванпанчмен / One-Punch Man (Нацумэ Синго) [OVERLORDS][TV+OVA] [12 из 12+1] [RAW] [RUS] [2015, приключения, комедия, фэнтези, HDTVRip] [720p]

21 | 6

7.71 ГБ

В этой теме нет новых непрочитанных сообщений. Ванпанчмен / One Punch Man [I.D.A] (Нацумэ Синго) [TV-1+OVA] [12 из 12 + 1] [RAW] [RUS] [2015, Комедия, Экшен, Приключения, Сэйнэн, Фантастика, WEBRip] [1080p]

36 | 11

16.87 ГБ

В этой теме нет новых непрочитанных сообщений. Сказка о Хвосте Феи / Fairy Tail (Исихира Синдзи) [TV-2] [1-90 из 90 (176-265)] [Ancord] [RAW] [RUS] [2014-2015 г., комедия, приключения, сёнэн, фэнтези, HDTVRip] [720p] / Фейри Тейл

253 | 78

30.19 ГБ

В этой теме нет новых непрочитанных сообщений. Ван Пис / One Piece (Уда Коносукэ) [TV] [490-726 из xxx] [RAW] [RUS+JAP] [2012-2016, приключения, комедия, фэнтези, сёнэн, HDTVRip] [720p] / Ван-Пис

0 | 78

93.44 ГБ

В этой теме нет новых непрочитанных сообщений. Новый завет владыки тьмы, моей сестры / Shinmai Maou no Testament Burst (Уэсу Тэцуто) [TV-2] [1-2 из 12] [RAW] [RUS] [2015, приключения, комедия, фэнтези, HDTVRip] [720p]

5 | 1

688.69 МБ

В этой теме нет новых непрочитанных сообщений. Ванпанчмен / One-Punch Man [01-05 из 12] (2015) HDTVRip 720p | L2, L1

0 | 27

4.29 ГБ




Вы не можете начинать темы
Вы не можете отвечать на сообщения
Вы не можете редактировать свои сообщения
Вы не можете удалять свои сообщения
Вы не можете добавлять вложения

Перейти:  
Для Мосгорсуда, Роскомнадзора и рекламодателей: mosgorsud-torrent[собачка]yandex.ru
 Вход
ppkBB3cker v.2 © 2008-2014 @ PPK
[ Time : 0.123s | 17 Queries | GZIP : Off ]

Торрент трекер RUTOR.IN, Не можете зайти на rutor.org? Какой новый адрес рутор? Какое зеркало рутор? Не работает rutor.org и зеркала? Тогда наш торрент специально для вас. Rutor.in неофициальное зеркало rutor. В случае если у Вас заблокирован rutor или вдруг Вы не можете на него зайти, то Вы без труда сможете скачать бесплатно и без рекламы последние новинки кино, игр, сериалов и прочего у нас, на Rutor.in. Не нужно использовать прокси, чтобы зайти на рутор, достаточно воспользоваться нашим ресурсом. Все новые фильмы, игры, сериалы, книги и музыка за 2013 и 2014 годы через торрент бесплатно. Скачивайте фильмы в хорошем качестве, игры для пк, xbox, playstation без регистрации. У нас вы найдете новые Зарубежные сериалы и Русские сериалы 2013, 2014, 2015 годов. Оставайтесь с нами, качайте любимые фильмы, игры, сериалы, книги и музыку.