img image001 image001 image001 image001 image001 image001 image001 image001 image001 image001 image001 image001 image001 image001 image001

Planets Sun Sun Sun
Статистика раздачи
Автор: Nickolas3434 | Размер: 1.6 ГБ | Добавлен: 28 янв 2016
Раздают: 0    Качают: 0
Скачать торрент
Скачать торрент
Описание торрента

СообщениеДобавлено: 28 янв 2016 

Бетонная Революция: Сверхчеловеческая Фантазия / Concrete Revolutio: Choujin Gensou

Перевод: Любительский (двухголосый)
Субтитры: отсутствуют
Хардсаб: отсутствует
Формат: HDTVRip, MP4, H.264, AAC
Страна: Япония
Режиссер: Мидзусима Сэйдзи
Жанр: приключения
Продолжительность: ТВ (>12 эп.), 25 мин.
Год выпуска: 2015
Озвучка: Гамлетка Цезаревна, 9й Неизвестный

Студия:

Описание: Сюжет разворачивается в альтернативном мире, куда однажды проникли разнообразные вымышленные суперлюди. В их число вошли как супергерои, так и суперзлодеи. Некоторые из них действуют открыто, другие же наоборот стараются держаться в тени. В Японии для работы с такими суперлюдьми создано специальное бюро, в котором и работает главный персонаж, Дзиро Хитоёси.



Видео: 1280x720р (16:9), 23,976fps, AVC (x264) , ~ 3 491 kbps avg, 0.158 bit/pixel
Аудио: 48.0 kHz, AAC, (Front: L R) , 2 ch ~192Kbps avg

General
Complete name : E:\DOWNLOADS\[AniDub]_Concrete_Revolutio_[Hamletka_Cezarevna_9th_Unknown]\[AniDub]_Concrete_Revolutio_[01]_[1280x720_x264]_[Hamletka_Cezarevna_9th_Unknown].mp4
Format : MPEG-4
Format profile : Base Media
Codec ID : isom
File size : 646 MiB
Duration : 24mn 29s
Overall bit rate mode : Variable
Overall bit rate : 3 687 Kbps
Encoded date : UTC 2015-10-04 23:55:05
Tagged date : UTC 2015-10-04 23:55:05

Video
ID : 1
Format : AVC
Format/Info : Advanced Video Codec
Format profile :
Format settings, CABAC : Yes
Format settings, ReFrames : 4 frames
Codec ID : avc1
Codec ID/Info : Advanced Video Coding
Duration : 24mn 29s
Bit rate : 3 491 Kbps
Maximum bit rate : 18.8 Mbps
Width : 1 280 pixels
Height : 720 pixels
Display aspect ratio : 16:9
Frame rate mode : Constant
Frame rate : 23.976 fps
Color space : YUV
Chroma subsampling : 4:2:0
Bit depth : 8 bits
Scan type : Progressive
Bits/(Pixel*Frame) : 0.158
Stream size : 612 MiB (95%)
Writing library : x264 core 129 r2245+729M 1a52e03
Encoding settings : cabac=1 / ref=4 / deblock=1:1:-1 / analyse=0x3:0x113 / me=umh / subme=9 / psy=1 / fade_compensate=0.00 / psy_rd=1.00:0.00 / mixed_ref=1 / me_range=24 / chroma_me=1 / trellis=2 / 8x8dct=1 / cqm=0 / deadzone=21,11 / fast_pskip=1 / chroma_qp_offset=-2 / threads=8 / lookahead_threads=1 / sliced_threads=0 / nr=0 / decimate=1 / interlaced=0 / bluray_compat=0 / constrained_intra=0 / fgo=0 / bframes=9 / b_pyramid=2 / b_adapt=2 / b_bias=0 / direct=1 / weightb=1 / open_gop=0 / weightp=2 / keyint=240 / keyint_min=24 / scenecut=40 / intra_refresh=0 / rc=crf / mbtree=0 / crf=18.5 / qcomp=0.72 / qpmin=0 / qpmax=69 / qpstep=4 / ip_ratio=1.40 / pb_ratio=1.30 / aq=1:0.85
Encoded date : UTC 2015-10-04 19:30:17
Tagged date : UTC 2015-10-04 23:56:01
Color primaries : BT.709
Transfer characteristics : BT.709
Matrix coefficients : BT.709
Color range : Limited

Audio
ID : 2
Format : AAC
Format/Info : Advanced Audio Codec
Format profile : LC
Codec ID : 40
Duration : 24mn 29s
Bit rate mode : Variable
Bit rate : 192 Kbps
Maximum bit rate : 219 Kbps
Channel(s) : 2 channels
Channel positions : Front: L R
Sampling rate : 48.0 KHz
Compression mode : Lossy
Stream size : 33.6 MiB (5%)
Encoded date : UTC 2015-10-04 23:49:18
Tagged date : UTC 2015-10-04 23:56:01

Внимание! Раздача ведётся путём добавления новых серий; при каждом добавлении создётся новый торрент. Чтобы начать докачку новой серии, пользователям необходимо сделать следующее:
(1) остановить скачивание,
(2) удалить старый торрент у себя из клиента (старые серии удалять не надо),
(3) скачать новый торрент и запустить его у себя в клиенте вместо старого, при этом указать клиенту путь в старую папку куда и должно происходить скачивание новых серий.

Ваш клиент при этом должен произвести хеширование (проверку) старой папки (если не производит сам - помогите ему сделать это), и будет докачивать только те серии которых у вас ещё нет. Старые серии при этом не удаляются, а продолжают раздаваться!

Eсли вы уже удалили старые серии, то предотвратить повторную закачку старых серий можно, отжав галочку в соответсвующих местах при запуске нового торрента. По возможности, желательно не удалять старые серии как можно дольше чтобы релизёр не столько продолжал раздавать старые серии, а смог сконцентрироваться на новых.











   Похожие торренты   Торрент   Размер 
В этой теме нет новых непрочитанных сообщений. Бетонная революция: Сверхчеловеческая фантазия / Concrete Revolutio: Choujin Gens [01-12 из 13] (2015) HDTVRip 720p | AniDub

9 | 2

6.01 ГБ

В этой теме нет новых непрочитанных сообщений. Бетонная революция: Сверхчеловеческая фантазия / Concrete Revolutio: Choujin Gens [01x01-13 из 13] (2015) HDTVRip 720p | L2

23 | 7

5.96 ГБ

В этой теме нет новых непрочитанных сообщений. Бетонная революция: Сверхчеловеческая фантазия / Concrete Revolutio: Choujin Gens [01-08 из 12] (2015) HDTVRip 720p | AniDub

0 | 0

4.16 ГБ

В этой теме нет новых непрочитанных сообщений. Бетонная революция: Сверхчеловеческая фантазия / Concrete Revolutio: Choujin Gens [01-10 из 12] (2015) HDTVRip 720p | AniDub

19 | 7

5.15 ГБ

В этой теме нет новых непрочитанных сообщений. Бетонная революция: Сверхчеловеческая фантазия / Concrete Revolutio: Choujin Gens [01-13 из 13] (2015) HDTVRip 720p | AniDub

97 | 17

6.55 ГБ

В этой теме нет новых непрочитанных сообщений. Бетонная революция: Сверхчеловеческая фантазия / Concrete Revolutio: Choujin Gens [01-09 из 12] (2015) HDTVRip 720p | AniDub

10 | 2

4.65 ГБ

В этой теме нет новых непрочитанных сообщений. Бетонная революция: Сверхчеловеческая фантазия / Concrete Revolutio: Choujin Gens [01-05 из 12] (2015) HDTVRip 720p | AniDub

6 | 16

2.62 ГБ




Вы не можете начинать темы
Вы не можете отвечать на сообщения
Вы не можете редактировать свои сообщения
Вы не можете удалять свои сообщения
Вы не можете добавлять вложения

Перейти:  
Для Мосгорсуда, Роскомнадзора и рекламодателей: mosgorsud-torrent[собачка]yandex.ru
 Вход
ppkBB3cker v.2 © 2008-2014 @ PPK
[ Time : 0.021s | 17 Queries | GZIP : Off ]

Торрент трекер RUTOR.IN, Не можете зайти на rutor.org? Какой новый адрес рутор? Какое зеркало рутор? Не работает rutor.org и зеркала? Тогда наш торрент специально для вас. Rutor.in неофициальное зеркало rutor. В случае если у Вас заблокирован rutor или вдруг Вы не можете на него зайти, то Вы без труда сможете скачать бесплатно и без рекламы последние новинки кино, игр, сериалов и прочего у нас, на Rutor.in. Не нужно использовать прокси, чтобы зайти на рутор, достаточно воспользоваться нашим ресурсом. Все новые фильмы, игры, сериалы, книги и музыка за 2013 и 2014 годы через торрент бесплатно. Скачивайте фильмы в хорошем качестве, игры для пк, xbox, playstation без регистрации. У нас вы найдете новые Зарубежные сериалы и Русские сериалы 2013, 2014, 2015 годов. Оставайтесь с нами, качайте любимые фильмы, игры, сериалы, книги и музыку.