img image001 image001 image001 image001 image001 image001 image001 image001 image001 image001 image001 image001 image001 image001 image001

Planets Sun Sun Sun
Статистика раздачи
Автор: Nickolas3434 | Размер: 2.19 ГБ | Добавлен: 31 янв 2016
Раздают: 75    Качают: 14
Скачать торрент
Скачать торрент
Описание торрента

СообщениеДобавлено: 31 янв 2016 


Информация о фильме
Название: Летние войны
Оригинальное название: Samâ uôzu
Год выхода: 2009
Жанр: аниме, мультфильм, фантастика, комедия, приключения
Режиссер: Мамору Хосода
В ролях: Рюноскэ Камики, Нанами Сакураба, Мицуки Танимура, Такахиро Ёкокава, Миэко Нобусава, Мицуми Сасаки, Такаси Кобаяси, Ёдзи Танака, Киёми Танигава, Хасия Накамура
О фильме: Одарённый старшеклассник Коисо Кенджи принимает приглашение от девушки на поездку к её семье. Если бы он только знал чем всё закончится. Сначала ему неожиданно приходится играть роль парня этой девушки перед её родственниками. Потом у него крадут аккаунт к стране Оз (своеобразная виртуальная реальность, в которой не только играют и развлекаются, но и ведут вполне серьёзные дела, вроде покупки товаров и ведения бизнеса). Далее события разрастаются как снежный ком. В итоге этой парочке старшеклассников придётся стать спасителями миров (реального и виртуального), и заодно спасти себя и близких от гибели.

Выпущено: Nippon Television Network
Продолжительность: 01:54:12
Перевод: Дублированный (лицензия)
Файл
Кодек: x264
Качество: BDRip (источник: Blu-ray Disc)
Видео: 1280x720 (16:9), 23.976 fps, 2280 kbps
Аудио #1: AC-3, 2 ch, 224 kbps (Rus)
Аудио #2: AC-3, 2 ch, 224 kbps (Jpn)
Субтитры: Русские (форс,полные)
Скачать: сэмпл
Скриншоты

Общее
Уникальный идентификатор : 235392288610146653720214457927314660191 (0xB116E7DE00303040AB3886878A3B5B5F)
Полное имя : Summer.Wars.2009.BDRip.720p.Rus.Jpn.mkv
Формат : Matroska
Версия формата : Version 2
Размер файла : 2,19 Гбайт
Продолжительность : 1 ч. 54 м.
Общий поток : 2744 Кбит/сек
Название фильма : Летние войны / Samâ uôzu (2009)
Дата кодирования : UTC 2016-01-27 17:29:59
Программа кодирования : mkvmerge v5.8.0 ('No Sleep / Pillow') built on Sep 2 2012 15:37:04
Библиотека кодирования : libebml v1.2.3 + libmatroska v1.3.0
Видео
Идентификатор : 1
Формат : AVC
Формат/Информация : Advanced Video Codec
Профиль формата : High@L4.1
Параметр CABAC формата : Да
Параметр ReFrames формата : 7 кадров
Идентификатор кодека : V_MPEG4/ISO/AVC
Продолжительность : 1 ч. 54 м.
Битрейт : 2280 Кбит/сек
Ширина : 1280 пикселей
Высота : 720 пикселей
Соотношение сторон : 16:9
Режим частоты кадров : Постоянный
Частота кадров : 23,976 кадра/сек
Цветовое пространство : YUV
Субдискретизация насыщенности : 4:2:0
Битовая глубина : 8 бит
Тип развёртки : Прогрессивная
Бит/(Пиксели*Кадры) : 0.103
Размер потока : 1,79 Гбайт (82%)
Заголовок : Release by AlexKa
Библиотека кодирования : x264 core 148 r2665 a01e339
Настройки программы : cabac=1 / ref=7 / deblock=1:0:0 / analyse=0x3:0x133 / me=umh / subme=11 / psy=1 / psy_rd=1.00:0.00 / mixed_ref=1 / me_range=32 / chroma_me=1 / trellis=2 / 8x8dct=1 / cqm=0 / deadzone=21,11 / fast_pskip=0 / chroma_qp_offset=-2 / threads=12 / lookahead_threads=3 / sliced_threads=0 / nr=0 / decimate=0 / interlaced=0 / bluray_compat=0 / constrained_intra=0 / bframes=11 / b_pyramid=2 / b_adapt=2 / b_bias=0 / direct=3 / weightb=1 / open_gop=0 / weightp=2 / keyint=240 / keyint_min=23 / scenecut=40 / intra_refresh=0 / rc=2pass / mbtree=0 / bitrate=2280 / ratetol=1.0 / qcomp=0.60 / qpmin=0 / qpmax=69 / qpstep=4 / cplxblur=20.0 / qblur=0.5 / ip_ratio=1.40 / pb_ratio=1.30 / aq=1:1.00
Язык : Japanese
Аудио #1
Идентификатор : 2
Формат : AC-3
Формат/Информация : Audio Coding 3
Расширение режима : CM (complete main)
Параметр Endianness формата : Big
Идентификатор кодека : A_AC3
Продолжительность : 1 ч. 54 м.
Вид битрейта : Постоянный
Битрейт : 224 Кбит/сек
Каналы : 2 канала
Расположение каналов : Front: L R
Частота : 48,0 КГц
Метод сжатия : С потерями
Размер потока : 183 Мбайт (8%)
Заголовок : Rus
Язык : Russian
Аудио #2
Идентификатор : 3
Формат : AC-3
Формат/Информация : Audio Coding 3
Расширение режима : CM (complete main)
Параметр Endianness формата : Big
Идентификатор кодека : A_AC3
Продолжительность : 1 ч. 54 м.
Вид битрейта : Постоянный
Битрейт : 224 Кбит/сек
Каналы : 2 канала
Расположение каналов : Front: L R
Частота : 48,0 КГц
Метод сжатия : С потерями
Размер потока : 183 Мбайт (8%)
Заголовок : Jpn
Язык : Japanese
Текст #1
Идентификатор : 4
Формат : UTF-8
Идентификатор кодека : S_TEXT/UTF8
Идентификатор кодека/Информация : UTF-8 Plain Text
Заголовок : Rus forced
Язык : Russian
Текст #2
Идентификатор : 5
Формат : PGS
Режим смешивания : zlib
Идентификатор кодека : S_HDMV/PGS
Идентификатор кодека/Информация : Picture based subtitle format used on BDs/HD-DVDs
Заголовок : Rus
Язык : Russian
Меню
00:00:00.000 : :Chapter 01
00:05:28.536 : :Chapter 02
00:14:44.717 : :Chapter 03
00:19:39.261 : :Chapter 04
00:24:34.055 : :Chapter 05
00:28:42.721 : :Chapter 06
00:38:04.991 : :Chapter 07
00:47:35.227 : :Chapter 08
00:56:53.118 : :Chapter 09
01:03:58.251 : :Chapter 10
01:14:54.948 : :Chapter 11
01:24:52.504 : :Chapter 12
01:33:55.880 : :Chapter 13
01:40:06.208 : :Chapter 14
01:48:58.573 : :Chapter 15
01:54:11.886 : :Chapter 16
01:54:37.662 : :Chapter 17
x264 [info]: frame I:1387 Avg QP:15.73 size:107996
x264 [info]: frame P:36957 Avg QP:18.89 size: 24519
x264 [info]: frame B:125937 Avg QP:18.17 size: 7111
x264 [info]: consecutive B-frames: 3.5% 3.3% 5.8% 22.6% 12.8% 37.2% 6.6% 3.3% 1.1% 1.0% 0.9% 1.8%



   Похожие торренты   Торрент   Размер 
В этой теме нет новых непрочитанных сообщений. Летние войны / Summer Wars (2009) BDRip-AVC | D, L, L1

199 | 31

2.94 ГБ

В этой теме нет новых непрочитанных сообщений. Летние войны / Summer Wars (2009) BDRip

71 | 12

2.54 ГБ

В этой теме нет новых непрочитанных сообщений. Годзилла: финальные войны / Gojira: Fainaru uôzu / Godzilla: Final Wars (2004) DVDRip | P2

34 | 9

2.27 ГБ

В этой теме нет новых непрочитанных сообщений. Войны Света / Daybreakers (2009) BDRip-AVC | Лицензия

919 | 319

1.58 ГБ

В этой теме нет новых непрочитанных сообщений. Звездные войны: Войны Клонов / Star Wars: The Clone Wars [S02] (2009) 2xDVD5, 3xDVD9 от Youtracker | D | Лицензия

4 | 5

23.54 ГБ

В этой теме нет новых непрочитанных сообщений. Сатана на подработке! / Hataraku Maou-sama! [TV] [01-13 из 13] (2013) BDRip 720p | L2

117 | 62

7.14 ГБ

В этой теме нет новых непрочитанных сообщений. Звездные войны: Войны клонов / Star Wars: The Clone Wars [s02] (2009-2010) HDTVRip 720p

87 | 8

14.47 ГБ




Вы не можете начинать темы
Вы не можете отвечать на сообщения
Вы не можете редактировать свои сообщения
Вы не можете удалять свои сообщения
Вы не можете добавлять вложения

Перейти:  
Для Мосгорсуда, Роскомнадзора и рекламодателей: mosgorsud-torrent[собачка]yandex.ru
 Вход
ppkBB3cker v.2 © 2008-2014 @ PPK
[ Time : 0.029s | 14 Queries | GZIP : Off ]

Торрент трекер RUTOR.IN, Не можете зайти на rutor.org? Какой новый адрес рутор? Какое зеркало рутор? Не работает rutor.org и зеркала? Тогда наш торрент специально для вас. Rutor.in неофициальное зеркало rutor. В случае если у Вас заблокирован rutor или вдруг Вы не можете на него зайти, то Вы без труда сможете скачать бесплатно и без рекламы последние новинки кино, игр, сериалов и прочего у нас, на Rutor.in. Не нужно использовать прокси, чтобы зайти на рутор, достаточно воспользоваться нашим ресурсом. Все новые фильмы, игры, сериалы, книги и музыка за 2013 и 2014 годы через торрент бесплатно. Скачивайте фильмы в хорошем качестве, игры для пк, xbox, playstation без регистрации. У нас вы найдете новые Зарубежные сериалы и Русские сериалы 2013, 2014, 2015 годов. Оставайтесь с нами, качайте любимые фильмы, игры, сериалы, книги и музыку.