img image001 image001 image001 image001 image001 image001 image001 image001 image001 image001 image001 image001 image001 image001 image001

Planets Sun Sun Sun
Статистика раздачи
Автор: Nickolas3434 | Размер: 1.16 ГБ | Добавлен: 15 мар 2016
Раздают: 468    Качают: 13
Скачать торрент
Скачать торрент
Описание торрента

СообщениеДобавлено: 15 мар 2016 


Информация о фильме
Название: Звездный десант
Оригинальное название: Starship Troopers / Uchuu no Senshi
Год выхода: 1988
Жанр: приключения, фантастика, меха
Режиссер: Амино Тэцуро
Художник: Икэда Сигэми
В ролях: Мацумото Ясунори, Сакума Рэй, Огава Синдзи, Янага Кадзуко, Мицуя Юдзи, Атака Макото, Камия Акира, Судзуоки Хиротака, Иноэ Кадзухико, Хаями Сё, Икэда Сюити, Симадзу Саэко
О фильме:
На основе одноимённого произведения классика научно-фантастической литературы Роберта Хайнлайна (Robert A. Heinlein). Интересно, то что фильм Starship Troopers Пола Верховена вышел только в 1997г. В отличие от фильма в аниме звездным пехотинцам оставили боевые костюмы, что ближе к оригиналу Р.А. Хайнлайна, а в фильме были только бронежилеты и шлемы. В сюжете показано тяжолые будни пехотинцев, процес их обучение, сполечение колектива, казарменную жизнь, вобщем армию.

World Art | MAL
Страна: Япония
Студия: Sunrise
Продолжительность: 00:25:20
Язык: Русский, Японский
Перевод: Любительский (двухголосый, закадровый)
Файл
Качество: LDRip-AVC
Формат: MKV
Кодек: H.264
Видео: 640x480, 23.976 fps, 860 kbps
Звук: Аудио кодек: MP3, Vorbis
Аудио RUS: 48.0 kHz, MP3, 2 ch, 192 kbps
Аудио JAP: 48.0 kHz, Vorbis, 2 ch, 90 kbps
Субтитры: русские (встроенные полный перевод, ASS) - Ardeur, AlexMalkavian
Релиз от:
Озвучивание: n_o_i_r, Azazel

01. Johnny
02. Hendrick
03. Maria
04. Greg
05. Cherenkov
06. Carmencita
General
Format : Matroska
Format version : Version 4 / Version 2
File size : 203 MiB
Duration : 24mn 17s
Overall bit rate : 1 169 Kbps
Encoded date : UTC 2016-03-08 18:12:47
Writing application : mkvmerge v8.3.0 ('Over the Horizon') 64bit
Writing library : libebml v1.3.1 + libmatroska v1.4.2
DURATION : 00:19:14.990000000
NUMBER_OF_FRAMES : 231
NUMBER_OF_BYTES : 22871
_STATISTICS_WRITING_APP : mkvmerge v8.3.0 ('Over the Horizon') 64bit
_STATISTICS_WRITING_DATE_UTC : 2016-03-08 18:12:47
_STATISTICS_TAGS : BPS DURATION NUMBER_OF_FRAMES NUMBER_OF_BYTES
Attachment : Yes
Video
ID : 1
Format : AVC
Format/Info : Advanced Video Codec
Format profile : High@L5.1
Format settings, CABAC : Yes
Format settings, ReFrames : 6 frames
Codec ID : V_MPEG4/ISO/AVC
Duration : 24mn 17s
Bit rate : 878 Kbps
Width : 640 pixels
Height : 480 pixels
Display aspect ratio : 4:3
Frame rate mode : Constant
Frame rate : 23.976 fps
Color space : YUV
Chroma subsampling : 4:2:0
Bit depth : 8 bits
Scan type : Progressive
Bits/(Pixel*Frame) : 0.119
Stream size : 149 MiB (73%)
Writing library : x264 core 57 svn-709C
Encoding settings : cabac=1 / ref=3 / deblock=1:-2:-1 / analyse=0x3:0x133 / me=umh / fpel_cmp=sad / subme=6 / me-prepass=0 / brdo=1 / mixed_ref=1 / me_range=16 / chroma_me=1 / trellis=2 / 8x8dct=1 / cqm=0 / deadzone=21,11 / chroma_qp_offset=0 / threads=3 / nr=0 / decimate=1 / mbaff=0 / bframes=6 / b_pyramid=1 / b_adapt=1 / b_bias=0 / direct=3 / wpredb=1 / bime=1 / keyint=250 / keyint_min=25 / scenecut=40(pre) / rc=2pass / bitrate=878 / ratetol=1.0 / rceq='blurCplx^(1-qComp)' / qcomp=0.60 / qpmin=10 / qpmax=51 / qpstep=4 / cplxblur=20.0 / qblur=0.5 / ip_ratio=1.40 / pb_ratio=1.30 / aq=1:0.2:15.0
Language : English
Default : Yes
Forced : No
DURATION : 00:24:17.956000000
NUMBER_OF_FRAMES : 34956
NUMBER_OF_BYTES : 160050472
_STATISTICS_WRITING_APP : mkvmerge v8.3.0 ('Over the Horizon') 64bit
_STATISTICS_WRITING_DATE_UTC : 2016-03-08 18:12:47
_STATISTICS_TAGS : BPS DURATION NUMBER_OF_FRAMES NUMBER_OF_BYTES
Audio #1
ID : 2
Format : MPEG Audio
Format version : Version 1
Format profile : Layer 3
Mode : Joint stereo
Codec ID : A_MPEG/L3
Codec ID/Hint : MP3
Duration : 24mn 17s
Bit rate mode : Constant
Bit rate : 192 Kbps
Channel(s) : 2 channels
Sampling rate : 48.0 KHz
Compression mode : Lossy
Stream size : 33.4 MiB (16%)
Title : AniDub
Language : Russian
Default : Yes
Forced : No
Audio #2
ID : 3
Format : Vorbis
Format settings, Floor : 1
Codec ID : A_VORBIS
Duration : 24mn 17s
Bit rate mode : Constant
Bit rate : 96.0 Kbps
Minimum bit rate : 96.0 Kbps
Channel(s) : 2 channels
Sampling rate : 48.0 KHz
Compression mode : Lossy
Delay relative to video : 1ms
Stream size : 16.7 MiB (8%)
Title : Original
Writing library : libVorbis 1.2 (UTC 2007-06-22)
Language : Japanese
Default : No
Forced : No
Text
ID : 4
Format : ASS
Codec ID : S_TEXT/ASS
Codec ID/Info : Advanced Sub Station Alpha
Compression mode : Lossless
Title : Полные субтитры
Language : Russian
Default : Yes
Forced : No



   Похожие торренты   Торрент   Размер 
В этой теме нет новых непрочитанных сообщений. Звездный десант / Starship troopers (2006) РС

151 | 16

4.32 ГБ

В этой теме нет новых непрочитанных сообщений. Starship Troopers / Звездный десант (2005) PC

160 | 22

1.26 ГБ

В этой теме нет новых непрочитанных сообщений. Звездный Десант / Starship Troopers (2006) PC | RePack

720 | 49

2.26 ГБ

В этой теме нет новых непрочитанных сообщений. Звездный десант / Starship Troopers (1997) DVD5

1 | 19

4.37 ГБ

В этой теме нет новых непрочитанных сообщений. Звездный десант / Starship Troopers (1997) BDRip от RP4 CHG

56 | 5

896.83 МБ

В этой теме нет новых непрочитанных сообщений. Звездный десант / Starship Troopers (1997) BDRip 720p

21 | 10

8.88 ГБ

В этой теме нет новых непрочитанных сообщений. Звездный десант / Starship Troopers (1997) HDRip от Scarabey

318 | 40

1.45 ГБ




Вы не можете начинать темы
Вы не можете отвечать на сообщения
Вы не можете редактировать свои сообщения
Вы не можете удалять свои сообщения
Вы не можете добавлять вложения

Перейти:  
Для Мосгорсуда, Роскомнадзора и рекламодателей: mosgorsud-torrent[собачка]yandex.ru
 Вход
ppkBB3cker v.2 © 2008-2014 @ PPK
[ Time : 0.109s | 14 Queries | GZIP : Off ]

Торрент трекер RUTOR.IN, Не можете зайти на rutor.org? Какой новый адрес рутор? Какое зеркало рутор? Не работает rutor.org и зеркала? Тогда наш торрент специально для вас. Rutor.in неофициальное зеркало rutor. В случае если у Вас заблокирован rutor или вдруг Вы не можете на него зайти, то Вы без труда сможете скачать бесплатно и без рекламы последние новинки кино, игр, сериалов и прочего у нас, на Rutor.in. Не нужно использовать прокси, чтобы зайти на рутор, достаточно воспользоваться нашим ресурсом. Все новые фильмы, игры, сериалы, книги и музыка за 2013 и 2014 годы через торрент бесплатно. Скачивайте фильмы в хорошем качестве, игры для пк, xbox, playstation без регистрации. У нас вы найдете новые Зарубежные сериалы и Русские сериалы 2013, 2014, 2015 годов. Оставайтесь с нами, качайте любимые фильмы, игры, сериалы, книги и музыку.