img image001 image001 image001 image001 image001 image001 image001 image001 image001 image001 image001 image001 image001 image001 image001

Planets Sun Sun Sun
Статистика раздачи
Автор: Nickolas3434 | Размер: 25.37 ГБ | Добавлен: 15 мар 2016
Раздают: 0    Качают: 0
Скачать торрент
Скачать торрент
Описание торрента

СообщениеДобавлено: 15 мар 2016 

Шаман Кинг / Король Шаман / Shaman King (2001-2002) [64 из 64] [480p-HQ] от SDIncorporation | JetiX

Информация о фильме
Русское название: Шаман Кинг | Король Шаман
Оригинальное название: Shaman King
Страна: Япония
Студия: Xebec, NAS

Год выпуска: 2001-2002
Жанр: Приключения, комедия, мистика, сёнэн
Перевод: Профессиональный многоголосый закадровый
Автор перевода: JetiX

Режиссер: Сэйдзи Мидзусима
Работа над релизом: Nod33Eset(retvil) [01-64]
StreetDespair [01-64]
Исходник: CCTV 2015 Год
О фильме:
Каждые 500 лет Звезда Судьбы, Лаго, проносится по небу, оповещая всех шаманов мира о том, что Великий Турнир Шаманов начался. Лаго — звезда, несущая миру разрушение и хаос, но раз в 500 лет выбирается Шаман, достойный объединения с Королем Духов — духом всего сущего — чтобы спасти мир. Шаман — человек, способный видеть духов и сражаться вместе с ними как единое целое. Шаманы, в отличие от людей, хранят жизнь на Земле, берегут природу и понимают её. Цель Турнира заключается в том, что шаман, который прошёл все испытания и бои, становится Королём Шаманов, объединяется с Королём Духов — величайшим и сильнейшим духом в мире, — и становится настолько могущественным, что может управлять всей жизнью на Земле.
Продолжительность: 64 из 64 серии ~00:24:00
Качество видео: TV-Rip
Видеокодек: H.264
Формат: MKV
Битрейт видео: ~2400 Kbps
Размер кадра: 640x480
Аудиокодек: AC3
Битрейт аудио: 192 kbps
Аудио #1: Русский ( 48 kHz, AC3 Dolby Digital, 2 channels, ~192 kbps) — Профессиональный многоголосый закадровый [JetiX]
Аудио #2: Японский ( 48 kHz, AC3 Dolby Digital, 2 channels, ~192 kbps) — [Japanese]
01. Мальчик танцующий с призраками
02. Ожидающий Самурай
03. Другой Шаман
04. Слияние 100%
05. Шаман, в полном рассвете сил
06. Мастер Кунг-фу
07. Пайлон, Кулак Ярости
08. Жизнь Шамана
09. Мальчик с севера
10. Судьба 600 лет
11. Дождь, который идёт весной
12. Звезда, символизирующая о начале
13. Воплощение духа
14. Битва шаманов
15. Костяные убийцы
16. Любовь Фауста
17. Путешествие двух людей к Заветному месту
18. Йо
19. Два больших Духа
20. Кладбище множества духов
21. Вера
22. Наши особые приёмы
23. Пробуждение жрицы
24. Непобедимый Тао Эн
25. Путешествие шаманов
26. Необъятная Америка
27. В поисках революции
28. Месть Лизерга
29. Супер мужество
30. Украденный Оракул-передатчик
31. Лес фей
32. Горький привкус дружбы
33. Тайны клана Асакура
34. Американские горячие источники
35. Легенда о вампире
36. Пушка ангела
37. Король приколов
38. Забытая песнь Семиноа
39. Цветочная группа
40. Тысячелетняя книга техник
41. Взрывное Воплощение духа
42. Дух меча
43. Битва Богов
44. Еще один удар
45. Великие Духи
46. Призрак семьи Тао
47. Чистая Душа
48. Мессия Дракона
49. Доктор из Докторов
50. Тьма в моём сердце
51. Охота на Шаманов
52. Тренировка?! Общий сбор
53. Пока-пока!
54. Восьмой Ангел
55. Дорога к Вавилону
56. Врата Вавилона
57. Битвам Шаманов, Конец?
58. Пылающие Ангелы
59. Священная Земля Звёзд
60. Друзья
61. Вечное Прощание
62. Борьба Со Смертью
63. Надежда Умирает Последней
64. Эпилог
General
Unique ID : 171406006028784221225090216769301420776 (0x80F39891380DAFCBB3E4EED3B6029AE8)
Complete name : Shaman.King.s01e01.HDTV480p-HQ.Rus.Jap.SDIncorporation.mkv
Format : Matroska
Format version : Version 4 / Version 2
File size : 406 MiB
Duration : 24mn 8s
Overall bit rate mode : Variable
Overall bit rate : 2 353 Kbps
Movie name : Shaman King Episode 1 [480p-HQ] (JetiX) © SDIncorporation
Encoded date : UTC 2016-03-08 20:00:36
Writing application : mkvmerge v8.9.0 ('Father Daughter') 64bit
Writing library : libebml v1.3.3 + libmatroska v1.4.4
Video
ID : 1
Format : AVC
Format/Info : Advanced Video Codec
Format profile : Main@L3
Format settings, CABAC : Yes
Format settings, ReFrames : 3 frames
Format settings, GOP : M=4, N=15
Codec ID : V_MPEG4/ISO/AVC
Duration : 24mn 8s
Bit rate mode : Variable
Bit rate : 1 965 Kbps
Maximum bit rate : 1 600 Kbps
Width : 640 pixels
Height : 480 pixels
Display aspect ratio : 4:3
Original display aspect rat : 16:9
Frame rate mode : Variable
Frame rate : 23.976 (23976/1000) fps
Original frame rate : 25.000 fps
Standard : NTSC
Color space : YUV
Chroma subsampling : 4:2:0
Bit depth : 8 bits
Scan type : Progressive
Bits/(Pixel*Frame) : 0.267
Stream size : 339 MiB (83%)
Language : English
Default : Yes
Forced : No
Color range : Limited
Audio #1
ID : 2
Format : AC-3
Format/Info : Audio Coding 3
Mode extension : CM (complete main)
Format settings, Endianness : Big
Codec ID : A_AC3
Duration : 24mn 8s
Bit rate mode : Constant
Bit rate : 192 Kbps
Channel(s) : 2 channels
Channel positions : Front: L R
Sampling rate : 48.0 KHz
Frame rate : 31.250 fps (1536 spf)
Compression mode : Lossy
Stream size : 33.1 MiB (8%)
Title : Russian (JetiX)
Language : Russian
Default : Yes
Forced : No
Audio #2
ID : 3
Format : AC-3
Format/Info : Audio Coding 3
Mode extension : CM (complete main)
Format settings, Endianness : Big
Codec ID : A_AC3
Duration : 24mn 8s
Bit rate mode : Constant
Bit rate : 192 Kbps
Channel(s) : 2 channels
Channel positions : Front: L R
Sampling rate : 48.0 KHz
Frame rate : 31.250 fps (1536 spf)
Compression mode : Lossy
Stream size : 33.1 MiB (8%)
Title : Japanese
Language : Japanese
Default : No
Forced : No
Text
ID : 4
Format : ASS
Codec ID : S_TEXT/ASS
Codec ID/Info : Advanced Sub Station Alpha
Duration : 23mn 34s
Bit rate : 216 bps
Count of elements : 475
Compression mode : Lossless
Stream size : 37.5 KiB (0%)
Title : Russian Subtitles
Language : Russian
Default : Yes
Forced : No





Время раздачи: С 8:00 до 22:00
Релиз от: ©SDIncorporation



   Похожие торренты   Торрент   Размер 
В этой теме нет новых непрочитанных сообщений. Шаман Кинг / Shaman King [64 из 64] (2001-2002) TVRip от SDIncorporation | JetiX

42 | 21

25.37 ГБ

В этой теме нет новых непрочитанных сообщений. Шаман Кинг / Shaman King [01-64 из 64] (2001-2002) HDTVRip 720p от SDIncorporation | JetiX

26 | 29

52.03 ГБ

В этой теме нет новых непрочитанных сообщений. Шаман Кинг / Shaman King [01-64 из 64] (2001-2002) HDTVRip 720p от SDIncorporation | JetiX

0 | 5

52.03 ГБ

В этой теме нет новых непрочитанных сообщений. Поднять Кинг-Конга / Бронзовый медалист: Поднять Кинг-Конга / Lifting King Kong / Kingkongeul Deulda / Bronze Medalist (2009) DVDRip | L1

0 | 3

2.19 ГБ

В этой теме нет новых непрочитанных сообщений. Царь Горы / King Of The Hill [S06] (2001-2002) DVDRip

9 | 12

5.48 ГБ

В этой теме нет новых непрочитанных сообщений. Детективы из табакерки / Die Pfefferkorner [S02] (2001-2002) TVRip

0 | 1

3.56 ГБ

В этой теме нет новых непрочитанных сообщений. Кинг / King [S01] (2011) HDTVRip от viruse

1 | 5

2.93 ГБ




Вы не можете начинать темы
Вы не можете отвечать на сообщения
Вы не можете редактировать свои сообщения
Вы не можете удалять свои сообщения
Вы не можете добавлять вложения

Перейти:  
Для Мосгорсуда, Роскомнадзора и рекламодателей: mosgorsud-torrent[собачка]yandex.ru
 Вход
ppkBB3cker v.2 © 2008-2014 @ PPK
[ Time : 0.042s | 14 Queries | GZIP : On ]

Торрент трекер RUTOR.IN, Не можете зайти на rutor.org? Какой новый адрес рутор? Какое зеркало рутор? Не работает rutor.org и зеркала? Тогда наш торрент специально для вас. Rutor.in неофициальное зеркало rutor. В случае если у Вас заблокирован rutor или вдруг Вы не можете на него зайти, то Вы без труда сможете скачать бесплатно и без рекламы последние новинки кино, игр, сериалов и прочего у нас, на Rutor.in. Не нужно использовать прокси, чтобы зайти на рутор, достаточно воспользоваться нашим ресурсом. Все новые фильмы, игры, сериалы, книги и музыка за 2013 и 2014 годы через торрент бесплатно. Скачивайте фильмы в хорошем качестве, игры для пк, xbox, playstation без регистрации. У нас вы найдете новые Зарубежные сериалы и Русские сериалы 2013, 2014, 2015 годов. Оставайтесь с нами, качайте любимые фильмы, игры, сериалы, книги и музыку.