img image001 image001 image001 image001 image001 image001 image001 image001 image001 image001 image001 image001 image001 image001 image001

Planets Sun Sun Sun
Статистика раздачи
Автор: Nickolas3434 | Размер: 5.7 ГБ | Добавлен: 04 апр 2016
Раздают: 57    Качают: 18
Скачать торрент
Скачать торрент
Описание торрента

СообщениеДобавлено: 04 апр 2016 


Информация о фильме
Название: Школа строгого режима
Оригинальное название: Prison School
Год выхода: 2015
Жанр: комедия, школа, этти
Режиссер: Мидзусима Цутому
Художник: Морио Маки, Мацумия Юми
В ролях: Камия Хироси, Кониси Кацуюки, Судзумура Кэнъити, Окицу Кадзуюки, Намикава Дайсукэ, Охара Саяка, Ито Сидзука, Ханадзава Кана, Хасимото Тинами, Тайти Ё, Фудзивара Кэйдзи, Косимидзу Ами
О фильме:
Частная академия Хатимицу, что расположилась в предместьях Токио - самая строгая женская школа в Японии. Вот только контингент местный – не капелла ангелов, на которых смотрит дева Мария, а скорее клубок змей, где официальному школьному Совету с президентом Кэйт активно противостоит подковерный «конклав» во главе с директорской дочкой Мари. Здесь не дарят в знак дружбы четки с распятием - эти девушки сами кого хочешь распнут!
И вот ради оживления школьной рутины в старшие классы Хатимицу впервые в истории зачислили пятерых парней. Можете догадаться, с какой добротой и гостеприимством хозяйки школы приняли Киёси и компанию. Отныне для несчастных шаг в сторону – нарушение школьных правил, а прыжок на месте – извращение и провокация! Какая романтика, если для всех пятерых родным домом стала школьная тюрьма? Хотя, знаете… были бы понятия, а жить и в тюрьме можно!
© Hollow, World Art
World Art | MAL
Страна: Япония
Студия: J.C. Staff
Продолжительность: 00:24:40
Язык: Русский, Японский
Перевод: Любительский (многоголосый, закадровый)
Файл
Качество: BDRip 720p
Формат: MKV
Кодек: H.264
Видео: 1280x720, 23.976 fps, 2300 kbps
Звук: Аудио кодек: AAC
Аудио RUS: 48.0 kHz, AAC, 2 ch, 192 kbps - AniDub
Аудио JAP: 48.0 kHz, AAC, 2 ch, 192 kbps
Субтитры: русские (встроенные надписи, ASS), русские (встроенные полный перевод, ASS) - Shift
Релиз от:
Озвучивание: Trina_D, Гамлетка Цезаревна, Nika Lenina, 9й неизвестный, Cuba77
Перевод: Shift

01. Подглядывание
02. Мужчина, видевший слишком много
03. Могучий взрыв
04. Забери меня в страну сумо
05. Самый коварный мужчина в школе
06. Месть Ханы
07. Изысканный ресторан Мейко
08. Дневник Андрея
09. В самом соку
10. Такая дерьмовая жизнь
11. Грибочек Брокович
12. С добрым утром, тюрьма!
General
Format : Matroska
Format version : Version 4 / Version 2
File size : 469 MiB
Duration : 24mn 40s
Overall bit rate : 2 660 Kbps
Encoded date : UTC 2016-04-01 07:21:44
Writing application : mkvmerge v8.3.0 ('Over the Horizon') 64bit
Writing library : libebml v1.3.1 + libmatroska v1.4.2
Video
ID : 1
Format : AVC
Format/Info : Advanced Video Codec
Format profile : Main@L4.1
Format settings, CABAC : Yes
Format settings, ReFrames : 4 frames
Codec ID : V_MPEG4/ISO/AVC
Duration : 24mn 40s
Bit rate : 2 262 Kbps
Width : 1 280 pixels
Height : 720 pixels
Display aspect ratio : 16:9
Frame rate mode : Constant
Frame rate : 23.976 (24000/1001) fps
Color space : YUV
Chroma subsampling : 4:2:0
Bit depth : 8 bits
Scan type : Progressive
Bits/(Pixel*Frame) : 0.102
Stream size : 399 MiB (85%)
Writing library : x264 core 148 r2638 7599210
Encoding settings : cabac=1 / ref=3 / deblock=1:0:0 / analyse=0x1:0x131 / me=umh / subme=9 / psy=1 / psy_rd=1.00:0.00 / mixed_ref=1 / me_range=32 / chroma_me=1 / trellis=1 / 8x8dct=0 / cqm=0 / deadzone=21,11 / fast_pskip=1 / chroma_qp_offset=-2 / threads=12 / lookahead_threads=1 / sliced_threads=0 / nr=0 / decimate=1 / interlaced=0 / bluray_compat=0 / constrained_intra=0 / bframes=3 / b_pyramid=2 / b_adapt=1 / b_bias=0 / direct=1 / weightb=1 / open_gop=0 / weightp=2 / keyint=240 / keyint_min=1 / scenecut=40 / intra_refresh=0 / rc_lookahead=40 / rc=crf / mbtree=1 / crf=17.0 / qcomp=0.60 / qpmin=0 / qpmax=69 / qpstep=4 / ip_ratio=1.40 / aq=1:1.00
Default : Yes
Forced : No
Audio #1
ID : 2
Format : AAC
Format/Info : Advanced Audio Codec
Format profile : LC
Codec ID : A_AAC
Duration : 24mn 39s
Bit rate : 192 Kbps
Channel(s) : 2 channels
Channel positions : Front: L R
Sampling rate : 48.0 KHz
Frame rate : 46.875 fps (1024 spf)
Compression mode : Lossy
Stream size : 33.9 MiB (7%)
Title : AniDub
Language : Russian
Default : Yes
Forced : No
Audio #2
ID : 3
Format : AAC
Format/Info : Advanced Audio Codec
Format profile : LC
Codec ID : A_AAC
Duration : 24mn 40s
Bit rate : 203 Kbps
Channel(s) : 2 channels
Channel positions : Front: L R
Sampling rate : 48.0 KHz
Frame rate : 46.875 fps (1024 spf)
Compression mode : Lossy
Stream size : 35.8 MiB (8%)
Title : Original
Language : Japanese
Default : No
Forced : No
Text #1
ID : 4
Format : ASS
Codec ID : S_TEXT/ASS
Codec ID/Info : Advanced Sub Station Alpha
Duration : 21mn 56s
Bit rate : 16 bps
Count of elements : 49
Compression mode : Lossless
Stream size : 2.63 KiB (0%)
Title : Надписи
Language : Russian
Default : Yes
Forced : No
Text #2
ID : 5
Format : ASS
Codec ID : S_TEXT/ASS
Codec ID/Info : Advanced Sub Station Alpha
Duration : 24mn 18s
Bit rate : 194 bps
Count of elements : 486
Compression mode : Lossless
Stream size : 34.6 KiB (0%)
Title : Полные субтитры
Language : Russian
Default : No
Forced : No



   Похожие торренты   Торрент   Размер 
В этой теме нет новых непрочитанных сообщений. Школа строгого режима / Prison School [01-12 из 12] (2015) HDTVRip 720p | AniDub, SHIZA Project

280 | 90

4.93 ГБ

В этой теме нет новых непрочитанных сообщений. Школа строгого режима / Школа-тюрьма / Prison School [01 из 10] (2015) HDTVRip 720p от BTT-TEAM и SOUND-GROUP | L2

3 | 1

511.05 МБ

В этой теме нет новых непрочитанных сообщений. Школа-тюрьма / Prison School [S01x01-12 из 12] (2015) BDRip 720p от KinoRay | L2

82 | 18

5.64 ГБ

В этой теме нет новых непрочитанных сообщений. Школа-тюрьма / Prison School [01x01-06 из 12] (2015) HDTVRip 720p | L1

14 | 3

2 ГБ

В этой теме нет новых непрочитанных сообщений. Школа-тюрьма / Prison School [01x01-10 из 12] (2015) HDTVRip 720p | L1

22 | 8

3.36 ГБ

В этой теме нет новых непрочитанных сообщений. Школа тюрьма / Prison School [01x01-02 из 12] (2015) HDTVRip 720p | L1

13 | 4

729.49 МБ

В этой теме нет новых непрочитанных сообщений. Школа тюрьма / Prison School [01x01-04 из 12] (2015) HDTVRip 720p | L1

20 | 18

1.39 ГБ




Вы не можете начинать темы
Вы не можете отвечать на сообщения
Вы не можете редактировать свои сообщения
Вы не можете удалять свои сообщения
Вы не можете добавлять вложения

Перейти:  
Для Мосгорсуда, Роскомнадзора и рекламодателей: mosgorsud-torrent[собачка]yandex.ru
 Вход
ppkBB3cker v.2 © 2008-2014 @ PPK
[ Time : 0.699s | 14 Queries | GZIP : On ]

Торрент трекер RUTOR.IN, Не можете зайти на rutor.org? Какой новый адрес рутор? Какое зеркало рутор? Не работает rutor.org и зеркала? Тогда наш торрент специально для вас. Rutor.in неофициальное зеркало rutor. В случае если у Вас заблокирован rutor или вдруг Вы не можете на него зайти, то Вы без труда сможете скачать бесплатно и без рекламы последние новинки кино, игр, сериалов и прочего у нас, на Rutor.in. Не нужно использовать прокси, чтобы зайти на рутор, достаточно воспользоваться нашим ресурсом. Все новые фильмы, игры, сериалы, книги и музыка за 2013 и 2014 годы через торрент бесплатно. Скачивайте фильмы в хорошем качестве, игры для пк, xbox, playstation без регистрации. У нас вы найдете новые Зарубежные сериалы и Русские сериалы 2013, 2014, 2015 годов. Оставайтесь с нами, качайте любимые фильмы, игры, сериалы, книги и музыку.