img image001 image001 image001 image001 image001 image001 image001 image001 image001 image001 image001 image001 image001 image001 image001

Planets Sun Sun Sun
Статистика раздачи
Автор: Nickolas3434 | Размер: 3.61 ГБ | Добавлен: 10 апр 2016
Раздают: 13    Качают: 2
Скачать торрент
Скачать торрент
Описание торрента

СообщениеДобавлено: 10 апр 2016 


Информация о фильме
Название: Харучика: Юность Харуты и Чики
Оригинальное название: Haruchika: Haruta to Chika wa Seishun Suru
Год выхода: 2016
Жанр: повседневность, романтика
Режиссер: Хасимото Масакадзу
Художник: Сато Аюму
В ролях: Бридкатт Сара Эми, Сайто Сома, Ханаэ Нацуки, Ямасита Сэйитиро, Тисуга Харука, Симадзаки Нобунага, Сэто Асами, Окамото Нобухико, Ямада Юки, Омигава Тиаки, Миядзима Эми
О фильме:
Тика Хомура, энергичная и непосредственная девушка, в старшей школе решила измениться и стать настоящей леди. Такая не может чахнуть над учебниками или носиться в пропахшей потом форме – больше подходит что-то высокое, и Хомура решила научиться играть на флейте, благо вещица небольшая и выглядит красиво. Обнаружив в конце концов школьный оркестр, кандидатка в Ямато Надэсико поняла две вещи: во-первых, клуб на грани закрытия, а во-вторых, один из оставшихся музыкантов – ее друг детства Харута Камидзё, с которым Тика не виделась девять лет!
Что ж, клуб придется спасать, иначе блистать героине будет негде. Камидзё думает так же – парень просто без ума от молодого Кусакабэ-сэнсея, их учителя музыки, дирижера мирового класса. Надо срочно собрать людей: но вот незадача – перспективных ребят поголовно мучают загадки и семейные тайны, им не до оркестра. Но Тика-то знает, что друг Харута – гений логики, с малых лет щелкающий любые задачки как орехи, а она, так и быть, поможет женской мудростью и интуицией. Стараниями веселой парочки оркестр начал заполняться, хотя работать юным детективам приходится на совесть. Это вам не в эуфониум дудеть – тут думать надо!
© Hollow, World Art
World Art | MAL
Страна: Япония
Студия: P.A. Works
Продолжительность: 00:24:00
Язык: Русский, Японский
Перевод: Любительский (двухголосый, закадровый)
Файл
Качество: HDTVRip 720p
Формат: MKV
Кодек: H.264
Видео: 1280x720, 23.976 fps, 1700 kbps
Звук: Аудио кодек: AAC
Аудио RUS: 48.0 kHz, AAC, 2 ch, 192 kbps - AniDub
Аудио JAP: 44.1 kHz, AAC, 2 ch, 192 kbps
Субтитры: русские (встроенные полный перевод, ASS) - I.D.A
Релиз от:
Озвучивание: BalFor, Esther
Перевод: Светлана-чан

01. Мелодичный шифр / Melodious Cipher
02. Пересекающийся куб / Cloth Cube
03. Выход из игры / Exit Game
04. Народный модернизм / Vernacular Modernism
05. Дыхание слона / Elephant`s Breath
06. Веснография / Springraphy
07. Частота 77.4 МГц / A Frequency of 77.4 MHz
08. Соммелье первой любви / First Love Sommelier
09. Взор Асмодея / The Gaze of Asmodeus
10. Лицензия на Бармаглота / Jabberwock`s License
11. Долина Эдема / Valley of Eden
12. Треугольник симпатий / Sympathy Triangle
General
Format : Matroska
Format version : Version 4 / Version 2
File size : 350 MiB
Duration : 24mn 0s
Overall bit rate : 2 036 Kbps
Encoded date : UTC 2016-04-09 16:40:03
Writing application : mkvmerge v8.3.0 ('Over the Horizon') 64bit
Writing library : libebml v1.3.1 + libmatroska v1.4.2
Video
ID : 1
Format : AVC
Format/Info : Advanced Video Codec
Format profile : High@L4.1
Format settings, CABAC : Yes
Format settings, ReFrames : 4 frames
Codec ID : V_MPEG4/ISO/AVC
Duration : 23mn 59s
Bit rate : 1 653 Kbps
Width : 1 280 pixels
Height : 720 pixels
Display aspect ratio : 16:9
Frame rate mode : Constant
Frame rate : 23.976 (24000/1001) fps
Color space : YUV
Chroma subsampling : 4:2:0
Bit depth : 8 bits
Scan type : Progressive
Bits/(Pixel*Frame) : 0.075
Stream size : 284 MiB (81%)
Writing library : x264 core 129 r2245+729M 1a52e03
Encoding settings : cabac=1 / ref=4 / deblock=1:1:-1 / analyse=0x3:0x113 / me=umh / subme=9 / psy=1 / fade_compensate=0.00 / psy_rd=1.00:0.00 / mixed_ref=1 / me_range=24 / chroma_me=1 / trellis=2 / 8x8dct=1 / cqm=0 / deadzone=21,11 / fast_pskip=1 / chroma_qp_offset=-2 / threads=8 / lookahead_threads=1 / sliced_threads=0 / nr=0 / decimate=1 / interlaced=0 / bluray_compat=0 / constrained_intra=0 / fgo=0 / bframes=9 / b_pyramid=2 / b_adapt=2 / b_bias=0 / direct=1 / weightb=1 / open_gop=0 / weightp=2 / keyint=240 / keyint_min=24 / scenecut=40 / intra_refresh=0 / rc=crf / mbtree=0 / crf=18.5 / qcomp=0.72 / qpmin=0 / qpmax=69 / qpstep=4 / ip_ratio=1.40 / pb_ratio=1.30 / aq=1:0.85
Default : Yes
Forced : No
Color range : Limited
Color primaries : BT.709
Transfer characteristics : BT.709
Matrix coefficients : BT.709
Audio #1
ID : 2
Format : AAC
Format/Info : Advanced Audio Codec
Format profile : LC
Codec ID : A_AAC
Duration : 23mn 59s
Bit rate : 192 Kbps
Channel(s) : 2 channels
Channel positions : Front: L R
Sampling rate : 48.0 KHz
Frame rate : 46.875 fps (1024 spf)
Compression mode : Lossy
Stream size : 33.0 MiB (9%)
Title : AniDub
Language : Russian
Default : Yes
Forced : No
Audio #2
ID : 3
Format : AAC
Format/Info : Advanced Audio Codec
Format profile : LC
Codec ID : A_AAC
Duration : 24mn 0s
Bit rate : 188 Kbps
Channel(s) : 2 channels
Channel positions : Front: L R
Sampling rate : 48.0 KHz
Frame rate : 46.875 fps (1024 spf)
Compression mode : Lossy
Stream size : 32.2 MiB (9%)
Title : Original
Language : Japanese
Default : No
Forced : No
Text
ID : 4
Format : ASS
Codec ID : S_TEXT/ASS
Codec ID/Info : Advanced Sub Station Alpha
Count of elements : 430
Compression mode : Lossless
Stream size : 33.5 KiB (0%)
Title : Полные субтитры
Language : Russian
Default : Yes
Forced : No



   Похожие торренты   Торрент   Размер 
В этой теме нет новых непрочитанных сообщений. ХаруЧика: Юность Харуты и Чики / Haruchika: Haruta to Chika wa Seishun Suru [01 из 12] (2016) HDTVRip 720p | SEKAI-PROJECT

9 | 0

312.39 МБ

В этой теме нет новых непрочитанных сообщений. ХаруЧика: Юность Харуты и Чики / Haruchika: Haruta to Chika wa Seishun Suru [01-03 из 12] (2016) HDTVRip 720p | SEKAI-PROJECT

9 | 2

809.05 МБ

В этой теме нет новых непрочитанных сообщений. ХаруЧика: Юность Харуты и Чики / Haruchika: Haruta to Chika wa Seishun Suru [01-06 из 12] (2016) HDTVRip 720p | SEKAI-PROJECT

0 | 0

1.43 ГБ

В этой теме нет новых непрочитанных сообщений. Романтическая комедия моей юности хуже, чем я ожидал 2 / OreGairu 2 / Yahari Ore no Seishun Love Come wa Machigatteiru. Zoku [01 из 13] (2015) HDTVRip 720p | L2

19 | 4

271.71 МБ

В этой теме нет новых непрочитанных сообщений. Романтическая комедия моей юности хуже, чем я ожидал 2 / OreGairu 2 / Yahari Ore no Seishun Love Come wa Machigatteiru. Zoku [01-02 из 13] (2015) HDTVRip 720p

13 | 6

553.47 МБ

В этой теме нет новых непрочитанных сообщений. Полулюди [ТВ-2] / Ajin 2 [02x01 из 12] (2016) HDTVRip 720p | AniDub

25 | 6

555.45 МБ

В этой теме нет новых непрочитанных сообщений. Полулюди [ТВ-2] / Ajin 2 [02x01 из 12] (2016) HDTVRip 720p | AniDub

29 | 12

1.62 ГБ




Вы не можете начинать темы
Вы не можете отвечать на сообщения
Вы не можете редактировать свои сообщения
Вы не можете удалять свои сообщения
Вы не можете добавлять вложения

Перейти:  
Для Мосгорсуда, Роскомнадзора и рекламодателей: mosgorsud-torrent[собачка]yandex.ru
 Вход
ppkBB3cker v.2 © 2008-2014 @ PPK
[ Time : 0.030s | 15 Queries | GZIP : Off ]

Торрент трекер RUTOR.IN, Не можете зайти на rutor.org? Какой новый адрес рутор? Какое зеркало рутор? Не работает rutor.org и зеркала? Тогда наш торрент специально для вас. Rutor.in неофициальное зеркало rutor. В случае если у Вас заблокирован rutor или вдруг Вы не можете на него зайти, то Вы без труда сможете скачать бесплатно и без рекламы последние новинки кино, игр, сериалов и прочего у нас, на Rutor.in. Не нужно использовать прокси, чтобы зайти на рутор, достаточно воспользоваться нашим ресурсом. Все новые фильмы, игры, сериалы, книги и музыка за 2013 и 2014 годы через торрент бесплатно. Скачивайте фильмы в хорошем качестве, игры для пк, xbox, playstation без регистрации. У нас вы найдете новые Зарубежные сериалы и Русские сериалы 2013, 2014, 2015 годов. Оставайтесь с нами, качайте любимые фильмы, игры, сериалы, книги и музыку.
cron