img image001 image001 image001 image001 image001 image001 image001 image001 image001 image001 image001 image001 image001 image001 image001

Planets Sun Sun Sun
Статистика раздачи
Автор: Nickolas3434 | Размер: 2.22 ГБ | Добавлен: 11 апр 2016
Раздают: 36    Качают: 13
Скачать торрент
Скачать торрент
Описание торрента

СообщениеДобавлено: 11 апр 2016 


Информация о фильме
Название: Отвечай-ка, наша Галко!
Оригинальное название: Oshiete! Galko-chan
Год выхода: 2016
Жанр: комедия, школа
Режиссер: Кавагути Кэйитиро
Художник: Мацумото Хироки, Хирама Юка
В ролях: Ваки Адзуми, Томита Мию, Такахаси Минами, Сакурай Такахиро, Оно Дайсукэ, Мацуока Ёсицугу, Накамура Юйти, Исигами Сидзука, Хондо Каэдэ, Кимура Дзюри, Иида Юко, Сува Аяка, Ёсино Юна, Какума Ай, Кубо Юрика, Судзуки Эри, Фурукава Макото, Ясиро Таку, Амасаки Кохэй, Кумагай Кэнтаро, Кобаяси Юсукэ, Мурата Тайси, Фудзии Юкиё, Сэнбонги Саяка, Ониси Саори, Макино Юй
О фильме:
Мучают вопросы о том, кто такие девочки и с чем же их едят? Отставить гугл! Ходячее очарование с пятым размером по имени Галко и две её подруги ответят на все ваши вопросы, от самых глупых, до самых интимных и извращённых. Да поведают вам обо всём, не абы как, а на собственном опыте, которого у всех троих с лихвой хватит!
World Art | MAL
Страна: Япония
Студия: Feel
Продолжительность: 00:07:50
Язык: Русский, Японский
Перевод: Любительский (многоголосый, закадровый)
Файл
Качество: HDTVRip 720p
Формат: MKV
Кодек: H.264
Видео: 1280x720, 23.976 fps, 2700 kbps
Звук: Аудио кодек: AAC
Аудио RUS: 48.0 kHz, AAC, 2 ch, 192 kbps - AniDub
Аудио JAP: 48.0 kHz, AAC, 2 ch, 192 kbps
Субтитры: русские (встроенные полный перевод, ASS) - Nisikino
Релиз от:
Озвучивание: Oni, Lonely Dragon, Demetra
Перевод: Oni
Тайминг и работа со звуком: NeSqUiK

01. Правда ли, что размер груди влияет на размер ареолы? / Is It True You`re a Gyaru?
02. Правда ли, что девственницы используют прокладки, а не девственницы - тампоны? / Is It True That You`re a Rich Girl?
03. Правда ли, что у девочек - соски даже на фоне загара выделяются? / Is It True That You`re an Otaku Girl?
04. Правда ли, что девушек волнует размер их рук? / Is It True You Can`t Help Moaning?
05. Так, что сиськи и интеллект обратно пропорциональны? / Is It True That You`re a Big Sister?
06. Так ли, что форма губ схожа с половым органом? / Is It True That Underwear Is Embarrassing?
07. Правда ли, что большая грудь всплывает под водой? / Is It True About the Boy at the Pool?
08. Правда ли, что разница между обхватом под грудью и обхватом груди важнее, чем сам размер груди? / Is It True You Have Horrible Bed-head?
09. Правда ли, что ты боишься проколов? / Is It True You`re Scared of Holes?
10. Правда ли, что ты пришла в школу после ночной вечеринки? / Is It True You Come to School After Being Out All Night?
11. Правда ли, что задницы это часть культуры? / Is It True That Butts Are Culture?
12. Правда ли, что вы друзья навек? / Is It True You`re Friends Forever?
General
Format : Matroska
Format version : Version 4 / Version 2
File size : 173 MiB
Duration : 7mn 50s
Overall bit rate : 3 095 Kbps
Encoded date : UTC 2016-04-10 12:23:07
Writing application : mkvmerge v8.3.0 ('Over the Horizon') 64bit
Writing library : libebml v1.3.1 + libmatroska v1.4.2
Video
ID : 1
Format : AVC
Format/Info : Advanced Video Codec
Format profile : High@L4.1
Format settings, CABAC : Yes
Format settings, ReFrames : 4 frames
Codec ID : V_MPEG4/ISO/AVC
Duration : 7mn 50s
Bit rate : 2 708 Kbps
Width : 1 280 pixels
Height : 720 pixels
Display aspect ratio : 16:9
Frame rate mode : Constant
Frame rate : 23.976 (24000/1001) fps
Color space : YUV
Chroma subsampling : 4:2:0
Bit depth : 8 bits
Scan type : Progressive
Bits/(Pixel*Frame) : 0.123
Stream size : 152 MiB (87%)
Writing library : x264 core 129 r2245+729M 1a52e03
Encoding settings : cabac=1 / ref=4 / deblock=1:1:-1 / analyse=0x3:0x113 / me=umh / subme=9 / psy=1 / fade_compensate=0.00 / psy_rd=1.00:0.00 / mixed_ref=1 / me_range=24 / chroma_me=1 / trellis=2 / 8x8dct=1 / cqm=0 / deadzone=21,11 / fast_pskip=1 / chroma_qp_offset=-2 / threads=8 / lookahead_threads=1 / sliced_threads=0 / nr=0 / decimate=1 / interlaced=0 / bluray_compat=0 / constrained_intra=0 / fgo=0 / bframes=9 / b_pyramid=2 / b_adapt=2 / b_bias=0 / direct=1 / weightb=1 / open_gop=0 / weightp=2 / keyint=240 / keyint_min=24 / scenecut=40 / intra_refresh=0 / rc=crf / mbtree=0 / crf=18.5 / qcomp=0.72 / qpmin=0 / qpmax=69 / qpstep=4 / ip_ratio=1.40 / pb_ratio=1.30 / aq=1:0.85
Default : Yes
Forced : No
Color range : Limited
Color primaries : BT.709
Transfer characteristics : BT.709
Matrix coefficients : BT.709
Audio #1
ID : 2
Format : AAC
Format/Info : Advanced Audio Codec
Format profile : LC
Codec ID : A_AAC
Duration : 7mn 49s
Bit rate : 192 Kbps
Channel(s) : 2 channels
Channel positions : Front: L R
Sampling rate : 48.0 KHz
Frame rate : 46.875 fps (1024 spf)
Compression mode : Lossy
Stream size : 10.8 MiB (6%)
Title : AniDub
Language : Russian
Default : Yes
Forced : No
Audio #2
ID : 3
Format : AAC
Format/Info : Advanced Audio Codec
Format profile : LC
Codec ID : A_AAC
Duration : 7mn 50s
Bit rate : 192 Kbps
Channel(s) : 2 channels
Channel positions : Front: L R
Sampling rate : 48.0 KHz
Frame rate : 46.875 fps (1024 spf)
Compression mode : Lossy
Stream size : 10.7 MiB (6%)
Title : Original
Language : Japanese
Default : No
Forced : No
Text
ID : 4
Format : ASS
Codec ID : S_TEXT/ASS
Codec ID/Info : Advanced Sub Station Alpha
Count of elements : 169
Compression mode : Lossless
Stream size : 14.1 KiB (0%)
Title : Полные субтитры
Language : Russian
Default : Yes
Forced : No



   Похожие торренты   Торрент   Размер 
В этой теме нет новых непрочитанных сообщений. Исчезновение Юки Нагато / The Disappearance of Nagato Yuki-chan / Nagato Yuki-chan no Shoushitsu [01-11 из 24] (2015) HDTVRip 720p | AniDub

19 | 5

3.36 ГБ

В этой теме нет новых непрочитанных сообщений. Исчезновение Юки Нагато / Nagato Yuki-chan no Shoushitsu [01-16 из 16] (2015) HDTVRip 720p | AniDub

141 | 30

5.02 ГБ

В этой теме нет новых непрочитанных сообщений. Волшебная Сомера / Fushigi na Somera-chan [01-12 из 12] (2015) WEBRip 720p | AniDub

34 | 6

572.18 МБ

В этой теме нет новых непрочитанных сообщений. Двуличная сестрёнка Умару / Himouto! Umaru-chan [01-12 из 12] (2015) WEBRip 720p | AniDub

27 | 12

4.14 ГБ

В этой теме нет новых непрочитанных сообщений. Двуличная сестрёнка Умару / Himouto! Umaru-chan [01-03 из 12] (2015) WEBRip 720p | AniDub

16 | 6

1.18 ГБ

В этой теме нет новых непрочитанных сообщений. Двуличная сестрёнка Умару / Himouto! Umaru-chan [01-05 из 12] (2015) WEBRip 720p | AniDub

18 | 2

1.97 ГБ

В этой теме нет новых непрочитанных сообщений. Двуличная сестрёнка Умару / Himouto! Umaru-chan [01-08 из 12] (2015) WEBRip 720p | AniDub

88 | 7

3.13 ГБ




Вы не можете начинать темы
Вы не можете отвечать на сообщения
Вы не можете редактировать свои сообщения
Вы не можете удалять свои сообщения
Вы не можете добавлять вложения

Перейти:  
Для Мосгорсуда, Роскомнадзора и рекламодателей: mosgorsud-torrent[собачка]yandex.ru
 Вход
ppkBB3cker v.2 © 2008-2014 @ PPK
[ Time : 0.039s | 14 Queries | GZIP : Off ]

Торрент трекер RUTOR.IN, Не можете зайти на rutor.org? Какой новый адрес рутор? Какое зеркало рутор? Не работает rutor.org и зеркала? Тогда наш торрент специально для вас. Rutor.in неофициальное зеркало rutor. В случае если у Вас заблокирован rutor или вдруг Вы не можете на него зайти, то Вы без труда сможете скачать бесплатно и без рекламы последние новинки кино, игр, сериалов и прочего у нас, на Rutor.in. Не нужно использовать прокси, чтобы зайти на рутор, достаточно воспользоваться нашим ресурсом. Все новые фильмы, игры, сериалы, книги и музыка за 2013 и 2014 годы через торрент бесплатно. Скачивайте фильмы в хорошем качестве, игры для пк, xbox, playstation без регистрации. У нас вы найдете новые Зарубежные сериалы и Русские сериалы 2013, 2014, 2015 годов. Оставайтесь с нами, качайте любимые фильмы, игры, сериалы, книги и музыку.