img image001 image001 image001 image001 image001 image001 image001 image001 image001 image001 image001 image001 image001 image001 image001

Planets Sun Sun Sun
Статистика раздачи
Автор: Nickolas3434 | Размер: 5.18 ГБ | Добавлен: 16 апр 2016
Раздают: 13    Качают: 11
Скачать торрент
Скачать торрент
Описание торрента

СообщениеДобавлено: 16 апр 2016 


Информация о фильме
Название: Сквозь эпохи: Узы ракуго
Оригинальное название: Shouwa Genroku Rakugo Shinjuu
Год выхода: 2016
Жанр: повседневность, комедия, драма
Режиссер: Омата Синъити
Художник: Маюдзуми Масаки
В ролях: Сэки Томокадзу, Кобаяси Ю, Усияма Сигэру, Исида Акира, Ямадэра Коити, Хаясибара Мэгуми
О фильме:
Жизнь чтеца в Японии всегда была не проста, а путь к всеобщему уважению и популярности был сложен и непредсказуем. Театр ракуго-место не для посредственностей! Каждый чтец имел свою манеру, свой стиль, однако не каждый мог достучатся до сердец слушателя. Молодому парню, только что вышедшему из мест заключения, втемяшило в голову, что чтец ракуго, это его путь и он отправляется прямиком к самому уважаемому чтецу Токио, дабы напросится в ученики. Но прошлое всегда остается пятном на судьбе человека: как на судьбе ученика, так и на судьбе наставника.
World Art | MAL
Страна: Япония
Студия: Studio DEEN
Продолжительность: 01~00:48:00, 12~00:24:30
Язык: Русский, Японский
Перевод: Любительский (многоголосый, закадровый)
Файл
Качество: WEBRip 720p
Формат: MKV
Кодек: H.264
Видео: 1280x720, 23.976 fps, 1700 kbps
Звук: Аудио кодек: AAC
Аудио RUS: 48.0 kHz, AAC, 2 ch, 192 kbps - AniDub
Аудио JAP: 44.1 kHz, AAC, 2 ch, 128 kbps
Субтитры: русские (встроенные полный перевод, ASS) - Timecraft, русские (встроенные полный перевод, ASS) - Yakusub Studio
Релиз от:
Озвучивание: Gecep, Vel, Trina_D, cuba77
Перевод: Timecraft
Тайминг и работа со звуком: NeSqUiK

General
Format : Matroska
Format version : Version 4 / Version 2
File size : 683 MiB
Duration : 47mn 57s
Overall bit rate : 1 991 Kbps
Encoded date : UTC 2016-04-15 07:10:59
Writing application : mkvmerge v8.3.0 ('Over the Horizon') 64bit
Writing library : libebml v1.3.1 + libmatroska v1.4.2
Attachments : OpenSans-Semibold.ttf
Video
ID : 1
Format : AVC
Format/Info : Advanced Video Codec
Format profile : High@L4.1
Format settings, CABAC : Yes
Format settings, ReFrames : 4 frames
Codec ID : V_MPEG4/ISO/AVC
Duration : 47mn 56s
Bit rate : 1 666 Kbps
Width : 1 280 pixels
Height : 720 pixels
Display aspect ratio : 16:9
Frame rate mode : Constant
Frame rate : 23.976 (24000/1001) fps
Color space : YUV
Chroma subsampling : 4:2:0
Bit depth : 8 bits
Scan type : Progressive
Bits/(Pixel*Frame) : 0.075
Stream size : 572 MiB (84%)
Writing library : x264 core 129 r2245+729M 1a52e03
Encoding settings : cabac=1 / ref=4 / deblock=1:1:-1 / analyse=0x3:0x113 / me=umh / subme=9 / psy=1 / fade_compensate=0.00 / psy_rd=1.00:0.00 / mixed_ref=1 / me_range=24 / chroma_me=1 / trellis=2 / 8x8dct=1 / cqm=0 / deadzone=21,11 / fast_pskip=1 / chroma_qp_offset=-2 / threads=8 / lookahead_threads=1 / sliced_threads=0 / nr=0 / decimate=1 / interlaced=0 / bluray_compat=0 / constrained_intra=0 / fgo=0 / bframes=9 / b_pyramid=2 / b_adapt=2 / b_bias=0 / direct=1 / weightb=1 / open_gop=0 / weightp=2 / keyint=240 / keyint_min=24 / scenecut=40 / intra_refresh=0 / rc=crf / mbtree=0 / crf=17.0 / qcomp=0.72 / qpmin=0 / qpmax=69 / qpstep=4 / ip_ratio=1.40 / pb_ratio=1.30 / aq=1:0.85
Default : Yes
Forced : No
Color range : Limited
Color primaries : BT.709
Transfer characteristics : BT.709
Matrix coefficients : BT.709
Audio #1
ID : 2
Format : AAC
Format/Info : Advanced Audio Codec
Format profile : LC
Codec ID : A_AAC
Duration : 47mn 56s
Bit rate : 192 Kbps
Channel(s) : 2 channels
Channel positions : Front: L R
Sampling rate : 48.0 KHz
Frame rate : 46.875 fps (1024 spf)
Compression mode : Lossy
Stream size : 65.9 MiB (10%)
Title : AniDub
Language : Russian
Default : Yes
Forced : No
Audio #2
ID : 3
Format : AAC
Format/Info : Advanced Audio Codec
Format profile : LC
Codec ID : A_AAC
Duration : 47mn 57s
Bit rate : 128 Kbps
Channel(s) : 2 channels
Channel positions : Front: L R
Sampling rate : 44.1 KHz
Frame rate : 43.066 fps (1024 spf)
Compression mode : Lossy
Stream size : 43.9 MiB (6%)
Title : Original
Language : Japanese
Default : No
Forced : No
Text #1
ID : 4
Format : ASS
Codec ID : S_TEXT/ASS
Codec ID/Info : Advanced Sub Station Alpha
Duration : 47mn 52s
Bit rate : 180 bps
Count of elements : 789
Compression mode : Lossless
Stream size : 63.2 KiB (0%)
Title : Timecraft
Language : Russian
Default : Yes
Forced : No
Text #2
ID : 5
Format : ASS
Codec ID : S_TEXT/ASS
Codec ID/Info : Advanced Sub Station Alpha
Duration : 47mn 52s
Bit rate : 207 bps
Count of elements : 812
Compression mode : Lossless
Stream size : 72.9 KiB (0%)
Title : Yakusub Studio
Language : Russian
Default : No
Forced : No



   Похожие торренты   Торрент   Размер 
В этой теме нет новых непрочитанных сообщений. Рёв!! / Bakuon!! [S01 + OVA] (2016) WEBRip 720p | AniDub

32 | 8

4.53 ГБ

В этой теме нет новых непрочитанных сообщений. Сотня / Hundred [S01] (2016) WEBRip 720p | AniDub

323 | 32

4.23 ГБ

В этой теме нет новых непрочитанных сообщений. Черные метки / Schwarzesmarken [01-08 из 12] (2016) WEBRip 720p | AniDub

11 | 3

2.76 ГБ

В этой теме нет новых непрочитанных сообщений. Черные метки / Schwarzesmarken [01-04 из 12] (2016) WEBRip 720p | AniDub

20 | 20

1.4 ГБ

В этой теме нет новых непрочитанных сообщений. Черные метки / Schwarzesmarken [01-05 из 12] (2016) WEBRip 720p | AniDub

45 | 7

1.75 ГБ

В этой теме нет новых непрочитанных сообщений. Черные метки / Schwarzesmarken [01-07 из 12] (2016) WEBRip 720p | AniDub

87 | 12

2.41 ГБ

В этой теме нет новых непрочитанных сообщений. Черные метки / Schwarzesmarken [01-12 из 12] (2016) WEBRip 720p | AniDub

65 | 10

4.16 ГБ




Вы не можете начинать темы
Вы не можете отвечать на сообщения
Вы не можете редактировать свои сообщения
Вы не можете удалять свои сообщения
Вы не можете добавлять вложения

Перейти:  
Для Мосгорсуда, Роскомнадзора и рекламодателей: mosgorsud-torrent[собачка]yandex.ru
 Вход
ppkBB3cker v.2 © 2008-2014 @ PPK
[ Time : 0.058s | 16 Queries | GZIP : On ]

Торрент трекер RUTOR.IN, Не можете зайти на rutor.org? Какой новый адрес рутор? Какое зеркало рутор? Не работает rutor.org и зеркала? Тогда наш торрент специально для вас. Rutor.in неофициальное зеркало rutor. В случае если у Вас заблокирован rutor или вдруг Вы не можете на него зайти, то Вы без труда сможете скачать бесплатно и без рекламы последние новинки кино, игр, сериалов и прочего у нас, на Rutor.in. Не нужно использовать прокси, чтобы зайти на рутор, достаточно воспользоваться нашим ресурсом. Все новые фильмы, игры, сериалы, книги и музыка за 2013 и 2014 годы через торрент бесплатно. Скачивайте фильмы в хорошем качестве, игры для пк, xbox, playstation без регистрации. У нас вы найдете новые Зарубежные сериалы и Русские сериалы 2013, 2014, 2015 годов. Оставайтесь с нами, качайте любимые фильмы, игры, сериалы, книги и музыку.