img image001 image001 image001 image001 image001 image001 image001 image001 image001 image001 image001 image001 image001 image001 image001

Planets Sun Sun Sun
Статистика раздачи
Автор: Nickolas3434 | Размер: 709.92 МБ | Добавлен: 03 май 2016
Раздают: 24    Качают: 1
Скачать торрент
Скачать торрент
Описание торрента

СообщениеДобавлено: 03 май 2016 


Информация о фильме
Название: История о семи городах
Оригинальное название: Nana Toshi Monogatari: Hokkyokukai Sensen
Год выхода: 1994
Жанр: приключения, фантастика, драма
Режиссер: Камбэ Мамору, Нагаока Акинори
Художник: Коно Дзиро
В ролях: Ямадэра Коити, Оцука Акио, Хорикава Рё, Яо Кадзуки, Окиаю Рётаро, Хисакава Ая, Иноэ Кикуко
О фильме:
В 2086 году человечество настиг глобальный катаклизм — Земля наклонилась на 90 градусов, что привело к гибели всего человечества на планете. Но через пару лет лунные колонисты, избежавшие уничтожения, стали восстанавливать Землю, создав семь городов. Но вдобавок, чтобы обезопасить себя, они так же создали и защитную систему, не позволяющую землянам подняться в небо. Однако, население луны погибло от неизвестного вируса, оставив землян без неба. И в 2190 разворачивается война между двумя городами: Аквиронией и Нью-Камелотом. Несмотря на то, что военные верха не очень-то хороши в военном деле, на стороне каждого из двух городов есть свой талантливый тактик: Кенет Гильфорд и Альмарик Асвайер.

World Art | MAL
Страна: Япония
Продолжительность: 00:29:20
Язык: Русский, Японский
Перевод: Любительский (двухголосый, закадровый)
Файл
Качество: DVDRip-AVC
Формат: MKV
Кодек: H.264
Видео: 640x480, 23.976 fps, 1100 kbps
Звук: Аудио кодек: AAC, AC3
Аудио RUS: 48.0 kHz, AAC, 2 ch, 192 kbps
Аудио JAP: 48.0 kHz, AC3, 2 ch, 448 kbps
Субтитры: русские (встроенные полный перевод, ASS) - Винсент
Релиз от:
Озвучивание: Azazel, Shina
Перевод: Винсент
Тайминг и работа со звуком: BlackBoo

General
Format : Matroska
Format version : Version 4 / Version 2
File size : 355 MiB
Duration : 29mn 16s
Overall bit rate : 1 695 Kbps
Encoded date : UTC 2016-04-30 07:57:19
Writing application : mkvmerge v8.3.0 ('Over the Horizon') 64bit
Writing library : libebml v1.3.1 + libmatroska v1.4.2
Attachments : Borobots.ttf / BRLNSR.TTF / eelite.ttf / addcn___.ttf / agfor22.ttf
Video
ID : 1
Format : AVC
Format/Info : Advanced Video Codec
Format profile : High@L3.2
Format settings, CABAC : Yes
Format settings, ReFrames : 16 frames
Codec ID : V_MPEG4/ISO/AVC
Duration : 29mn 16s
Bit rate : 1 051 Kbps
Width : 640 pixels
Height : 480 pixels
Display aspect ratio : 4:3
Frame rate mode : Constant
Frame rate : 29.970 (30000/1001) fps
Color space : YUV
Chroma subsampling : 4:2:0
Bit depth : 8 bits
Scan type : Progressive
Bits/(Pixel*Frame) : 0.114
Stream size : 220 MiB (62%)
Writing library : x264 core 68 r1183M f21daff
Encoding settings : cabac=1 / ref=16 / deblock=1:0:0 / analyse=0x3:0x133 / me=tesa / subme=9 / psy_rd=1.0:0.0 / mixed_ref=1 / me_range=32 / chroma_me=1 / trellis=1 / 8x8dct=1 / cqm=0 / deadzone=21,11 / chroma_qp_offset=-2 / threads=3 / nr=0 / decimate=0 / mbaff=0 / bframes=16 / b_pyramid=1 / b_adapt=2 / b_bias=0 / direct=3 / wpredb=1 / keyint=240 / keyint_min=24 / scenecut=40 / rc=2pass / bitrate=1051 / ratetol=4.0 / qcomp=0.46 / qpmin=10 / qpmax=51 / qpstep=4 / cplxblur=20.0 / qblur=0.5 / ip_ratio=1.40 / pb_ratio=1.30 / aq=1:1.00
Language : Japanese
Default : Yes
Forced : No
Audio #1
ID : 2
Format : AAC
Format/Info : Advanced Audio Codec
Format profile : LC
Codec ID : A_AAC
Duration : 29mn 16s
Bit rate : 192 Kbps
Channel(s) : 2 channels
Channel positions : Front: L R
Sampling rate : 48.0 KHz
Frame rate : 46.875 fps (1024 spf)
Compression mode : Lossy
Stream size : 40.2 MiB (11%)
Title : AniDub
Language : Russian
Default : Yes
Forced : No
Audio #2
ID : 3
Format : AC-3
Format/Info : Audio Coding 3
Mode extension : CM (complete main)
Format settings, Endianness : Big
Codec ID : A_AC3
Duration : 29mn 16s
Bit rate mode : Constant
Bit rate : 448 Kbps
Channel(s) : 2 channels
Channel positions : Front: L R
Sampling rate : 48.0 KHz
Frame rate : 31.250 fps (1536 spf)
Compression mode : Lossy
Stream size : 93.8 MiB (26%)
Title : Original
Language : Japanese
Default : No
Forced : No
Text
ID : 4
Format : ASS
Codec ID : S_TEXT/ASS
Codec ID/Info : Advanced Sub Station Alpha
Duration : 25mn 59s
Bit rate : 121 bps
Count of elements : 248
Compression mode : Lossless
Stream size : 23.1 KiB (0%)
Title : Полные субтитры
Language : Russian
Default : Yes
Forced : No



   Похожие торренты   Торрент   Размер 
В этой теме нет новых непрочитанных сообщений. История Хатико / Hachiko monogatari (1987) DVDRip

3 | 3

1002.66 МБ

В этой теме нет новых непрочитанных сообщений. История Хатико / Hachiko monogatari (1987) DVDRip

2 | 3

1.43 ГБ

В этой теме нет новых непрочитанных сообщений. История Хатико / Hachiko monogatari (1987) DVDRip -Brux

27 | 5

1.47 ГБ

В этой теме нет новых непрочитанных сообщений. Апрельская история / April Story / Shigatsu monogatari (1998) DVDRip

2 | 1

881.26 МБ

В этой теме нет новых непрочитанных сообщений. Моя история! / Ore Monogatari!! [01 из 24] (2015) WEBRip 720p | AniFilm

6 | 2

1.99 ГБ

В этой теме нет новых непрочитанных сообщений. Моя история!! / Ore Monogatari!! [01-09 из 24] (2015) HDTVRip 720p | AniDub

45 | 41

2.52 ГБ

В этой теме нет новых непрочитанных сообщений. Моя история!! / Ore Monogatari!! [01-24 из 24] (2015) HDTVRip 720p | AniDub

48 | 35

6.61 ГБ




Вы не можете начинать темы
Вы не можете отвечать на сообщения
Вы не можете редактировать свои сообщения
Вы не можете удалять свои сообщения
Вы не можете добавлять вложения

Перейти:  
Для Мосгорсуда, Роскомнадзора и рекламодателей: mosgorsud-torrent[собачка]yandex.ru
 Вход
ppkBB3cker v.2 © 2008-2014 @ PPK
[ Time : 0.033s | 15 Queries | GZIP : Off ]

Торрент трекер RUTOR.IN, Не можете зайти на rutor.org? Какой новый адрес рутор? Какое зеркало рутор? Не работает rutor.org и зеркала? Тогда наш торрент специально для вас. Rutor.in неофициальное зеркало rutor. В случае если у Вас заблокирован rutor или вдруг Вы не можете на него зайти, то Вы без труда сможете скачать бесплатно и без рекламы последние новинки кино, игр, сериалов и прочего у нас, на Rutor.in. Не нужно использовать прокси, чтобы зайти на рутор, достаточно воспользоваться нашим ресурсом. Все новые фильмы, игры, сериалы, книги и музыка за 2013 и 2014 годы через торрент бесплатно. Скачивайте фильмы в хорошем качестве, игры для пк, xbox, playstation без регистрации. У нас вы найдете новые Зарубежные сериалы и Русские сериалы 2013, 2014, 2015 годов. Оставайтесь с нами, качайте любимые фильмы, игры, сериалы, книги и музыку.