img image001 image001 image001 image001 image001 image001 image001 image001 image001 image001 image001 image001 image001 image001 image001

Planets Sun Sun Sun
Статистика раздачи
Автор: Nickolas3434 | Размер: 2.84 ГБ | Добавлен: 02 май 2016
Раздают: 7    Качают: 1
Скачать торрент
Скачать торрент
Описание торрента

СообщениеДобавлено: 02 май 2016 


Информация о фильме
Название: Гармония
Оригинальное название: Harmony
Год выхода: 2015
Жанр: приключения, фантастика
Режиссер: Накамура Такаси, Майкл Ариас
Художник: Синбаяси Кидзи, Хасада Осаму
В ролях: Савасиро Миюки, Уэда Рэйна, Судзаки Ая,Сакакибара Ёсико, Оцука Акио, Мики Синъитиро, Нагасима Юйти, Морита Дзюнпэй
О фильме:
В будущем, благодаря новейшим нанотехнологиям в области медицины, высокому уровню социального и этического обеспечения, а также взаимному уважению мир наконец достиг утопии. Однако этот идеальный мир не так идеален. Три девушки, решив возразить тоталитарной «доброте» и «сверхмедицине», пытаются покончить с собой путем голодовки, но у них ничего не выходит. Повзрослев, одна из девушек, Туан Кириэ, вступает во Всемирную Организацию Здравоохранения. И когда новый мир начинает переживать серьезный кризис, Туан находит еще одну «покончившую с собой», чтобы спасти планету... от самой себя.
World Art | MAL
Страна: Япония
Студия: Studio 4°C
Продолжительность: 01:59:29
Язык: Японский
Перевод: Субтитры
Файл
Качество: BDRip 720p
Формат: MKV
Кодек: H.264
Видео: 1280x720, 23.976 fps, 3192 kbps
Звук: Аудио кодек: AAC
Аудио JAP: 48.0 kHz, AAC, 2 ch, 208 kbps
Субтитры: русские (встроенные полный перевод, ASS) - Shimizu & GMC & Timecraft

General
Format : Matroska
Format version : Version 4 / Version 2
File size : 2.84 GiB
Duration : 1h 59mn
Overall bit rate : 3 403 Kbps
Encoded date : UTC 2016-04-30 09:03:21
Writing application : mkvmerge v8.3.0 ('Over the Horizon') 64bit
Writing library : libebml v1.3.1 + libmatroska v1.4.2
Video
ID : 1
Format : AVC
Format/Info : Advanced Video Codec
Format profile : Main@L4.1
Format settings, CABAC : Yes
Format settings, ReFrames : 4 frames
Codec ID : V_MPEG4/ISO/AVC
Duration : 1h 59mn
Bit rate : 3 192 Kbps
Width : 1 280 pixels
Height : 720 pixels
Display aspect ratio : 16:9
Frame rate mode : Constant
Frame rate : 23.976 (24000/1001) fps
Color space : YUV
Chroma subsampling : 4:2:0
Bit depth : 8 bits
Scan type : Progressive
Bits/(Pixel*Frame) : 0.144
Stream size : 2.66 GiB (94%)
Writing library : x264 core 148 r2665 a01e339
Encoding settings : cabac=1 / ref=3 / deblock=1:0:0 / analyse=0x1:0x131 / me=umh / subme=9 / psy=1 / psy_rd=1.00:0.00 / mixed_ref=1 / me_range=32 / chroma_me=1 / trellis=1 / 8x8dct=0 / cqm=0 / deadzone=21,11 / fast_pskip=1 / chroma_qp_offset=-2 / threads=12 / lookahead_threads=1 / sliced_threads=0 / nr=0 / decimate=1 / interlaced=0 / bluray_compat=0 / constrained_intra=0 / bframes=3 / b_pyramid=2 / b_adapt=1 / b_bias=0 / direct=1 / weightb=1 / open_gop=0 / weightp=2 / keyint=240 / keyint_min=1 / scenecut=40 / intra_refresh=0 / rc_lookahead=40 / rc=crf / mbtree=1 / crf=17.0 / qcomp=0.60 / qpmin=0 / qpmax=69 / qpstep=4 / ip_ratio=1.40 / aq=1:1.00
Language : Japanese
Default : Yes
Forced : No
Audio
ID : 2
Format : AAC
Format/Info : Advanced Audio Codec
Format profile : LC
Codec ID : A_AAC
Duration : 1h 59mn
Bit rate : 208 Kbps
Channel(s) : 2 channels
Channel positions : Front: L R
Sampling rate : 48.0 KHz
Frame rate : 46.875 fps (1024 spf)
Compression mode : Lossy
Stream size : 178 MiB (6%)
Title : Original
Language : Japanese
Default : Yes
Forced : No
Text
ID : 3
Format : ASS
Codec ID : S_TEXT/ASS
Codec ID/Info : Advanced Sub Station Alpha
Duration : 1h 58mn
Bit rate : 178 bps
Count of elements : 1692
Compression mode : Lossless
Stream size : 155 KiB (0%)
Title : Полные субтитры
Language : Russian
Default : Yes
Forced : No



   Похожие торренты   Торрент   Размер 
В этой теме нет новых непрочитанных сообщений. Гармония / Harmony / Hamoni (2010) DVDRip | L1

0 | 2

2.16 ГБ

В этой теме нет новых непрочитанных сообщений. Гармония / Harmony / Hamoni (2010) DVDRip | SUB

0 | 1

1.37 ГБ

В этой теме нет новых непрочитанных сообщений. Ночная гармония / Night Harmony (2012) HDTVRip от ExKinoRay

6 | 4

3.81 ГБ

В этой теме нет новых непрочитанных сообщений. Ночная гармония / Night Harmony (2011) HDTV 1080i

0 | 2

17.47 ГБ

В этой теме нет новых непрочитанных сообщений. Гармония / Harmonie [Movie] (2014) BDRip 720p от AniFilm | L

34 | 6

1 ГБ

В этой теме нет новых непрочитанных сообщений. Гармония классики [001-101 из 101] (2015) WEB-DL 1080p от Files-х

5 | 0

11.12 ГБ

В этой теме нет новых непрочитанных сообщений. Гармония ОВА / Harmonie [OVA] (2014) HDTVRip 720p | AniDub

28 | 5

321.99 МБ




Вы не можете начинать темы
Вы не можете отвечать на сообщения
Вы не можете редактировать свои сообщения
Вы не можете удалять свои сообщения
Вы не можете добавлять вложения

Перейти:  
Для Мосгорсуда, Роскомнадзора и рекламодателей: mosgorsud-torrent[собачка]yandex.ru
 Вход
ppkBB3cker v.2 © 2008-2014 @ PPK
[ Time : 0.033s | 15 Queries | GZIP : Off ]

Торрент трекер RUTOR.IN, Не можете зайти на rutor.org? Какой новый адрес рутор? Какое зеркало рутор? Не работает rutor.org и зеркала? Тогда наш торрент специально для вас. Rutor.in неофициальное зеркало rutor. В случае если у Вас заблокирован rutor или вдруг Вы не можете на него зайти, то Вы без труда сможете скачать бесплатно и без рекламы последние новинки кино, игр, сериалов и прочего у нас, на Rutor.in. Не нужно использовать прокси, чтобы зайти на рутор, достаточно воспользоваться нашим ресурсом. Все новые фильмы, игры, сериалы, книги и музыка за 2013 и 2014 годы через торрент бесплатно. Скачивайте фильмы в хорошем качестве, игры для пк, xbox, playstation без регистрации. У нас вы найдете новые Зарубежные сериалы и Русские сериалы 2013, 2014, 2015 годов. Оставайтесь с нами, качайте любимые фильмы, игры, сериалы, книги и музыку.
cron