img image001 image001 image001 image001 image001 image001 image001 image001 image001 image001 image001 image001 image001 image001 image001

Planets Sun Sun Sun
Статистика раздачи
Автор: Nickolas3434 | Размер: 6.46 ГБ | Добавлен: 06 май 2016
Раздают: 83    Качают: 11
Скачать торрент
Скачать торрент
Описание торрента

СообщениеДобавлено: 06 май 2016 


Информация о фильме
Название: Владыка
Оригинальное название: Overlord
Год выхода:2015
Жанр: фэнтези
Режиссер: Ито Наоюки
Художник: Икэда Сигэми, Маруяма Юкико
В ролях: Хино Сатоси, Хара Юми, Уэсака Сумирэ, Като Эмири, Утияма Юми, Като Масаюки, Миякэ Кэнта, Тиба Сигэру
О фильме:
История начинается с последнего дня существования популярной онлайн-игры «Иггдрасиль». Главный герой, Момонга, решил остаться в любимой игре до самого последнего момента. Однако сервер не прекратил свою работу, и Момонга застревает в своем скелетоподобном персонаже и переносится в другой мир. Теперь "Могучему Властелину" придется открыть для себя новый мир и столкнуться с многочисленными испытаниями.У него нет ни родни, ни друзей, ни места под солнцем, но он приложит все усилия для того, чтобы завоевать новый мир, которым стала для него игра.
World Art | MAL
Страна: Япония
Студия: Madhouse Studios
Продолжительность: 00:24:00
Язык: Русский, Японский
Перевод: Любительский (двухголосый, закадровый)
Озвучки на Special нету, только субтитры
Файл
Качество: BDRip 720p
Формат: MKV
Кодек: H.264
Видео: 1280x720, 23.976 fps, 2300 kbps
Звук: Аудио кодек: AC3, AAC
Аудио RUS: 48.0 kHz, AC3, 2 ch, 192 kbps - SHIZA Project
Аудио RUS: 48.0 kHz, AC3, 2 ch, 192 kbps - Onibaku Group
Аудио JAP: 48.0 kHz, AAC, 2 ch, 192 kbps
Субтитры: русские (встроенные надписи, ASS), русские (встроенные полный перевод, ASS) - YakuSub Studio
Релиз от:
Озвучивание: NIKITOS, NesTea
Перевод: Horosant
Тайминг и работа со звуком: Robb, Saya, Gigantic Guyver
Релиз от: Onibaku Group
Озвучивание: Eladiel, Zendos
Тайминг и работа со звуком: Архангел

01. Конец и начало
02. Стражи
03. Битва при Карне.
04. Владыка смерти
05. Два авантюриста
06. Путешествие
07. Мудрый король леса
08. Беспощадные клинки смерти
09. Тёмный Воин
10. Истинный вампир
11. Смятение и понимание
12. Кровавая валькирия
13. ПВН
General
Format : Matroska
Format version : Version 4 / Version 2
File size : 508 MiB
Duration : 24mn 14s
Overall bit rate : 2 933 Kbps
Encoded date : UTC 2016-05-02 17:29:26
Writing application : mkvmerge v8.3.0 ('Over the Horizon') 64bit
Writing library : libebml v1.3.1 + libmatroska v1.4.2
Video
ID : 1
Format : AVC
Format/Info : Advanced Video Codec
Format profile : Main@L4.1
Format settings, CABAC : Yes
Format settings, ReFrames : 4 frames
Codec ID : V_MPEG4/ISO/AVC
Duration : 24mn 14s
Bit rate : 2 347 Kbps
Width : 1 280 pixels
Height : 720 pixels
Display aspect ratio : 16:9
Frame rate mode : Constant
Frame rate : 23.976 (24000/1001) fps
Color space : YUV
Chroma subsampling : 4:2:0
Bit depth : 8 bits
Scan type : Progressive
Bits/(Pixel*Frame) : 0.106
Stream size : 407 MiB (80%)
Writing library : x264 core 148 r2638 7599210
Encoding settings : cabac=1 / ref=3 / deblock=1:0:0 / analyse=0x1:0x131 / me=umh / subme=9 / psy=1 / psy_rd=1.00:0.00 / mixed_ref=1 / me_range=32 / chroma_me=1 / trellis=1 / 8x8dct=0 / cqm=0 / deadzone=21,11 / fast_pskip=1 / chroma_qp_offset=-2 / threads=12 / lookahead_threads=1 / sliced_threads=0 / nr=0 / decimate=1 / interlaced=0 / bluray_compat=0 / constrained_intra=0 / bframes=3 / b_pyramid=2 / b_adapt=1 / b_bias=0 / direct=1 / weightb=1 / open_gop=0 / weightp=2 / keyint=240 / keyint_min=1 / scenecut=40 / intra_refresh=0 / rc_lookahead=40 / rc=crf / mbtree=1 / crf=17.0 / qcomp=0.60 / qpmin=0 / qpmax=69 / qpstep=4 / ip_ratio=1.40 / aq=1:1.00
Default : Yes
Forced : No
Audio #1
ID : 2
Format : AC-3
Format/Info : Audio Coding 3
Mode extension : CM (complete main)
Format settings, Endianness : Big
Codec ID : A_AC3
Duration : 24mn 14s
Bit rate mode : Constant
Bit rate : 192 Kbps
Channel(s) : 2 channels
Channel positions : Front: L R
Sampling rate : 48.0 KHz
Frame rate : 31.250 fps (1536 spf)
Compression mode : Lossy
Stream size : 33.3 MiB (7%)
Title : SHIZA Project
Language : Russian
Default : Yes
Forced : No
Audio #2
ID : 3
Format : AC-3
Format/Info : Audio Coding 3
Mode extension : CM (complete main)
Format settings, Endianness : Big
Codec ID : A_AC3
Duration : 24mn 14s
Bit rate mode : Constant
Bit rate : 192 Kbps
Channel(s) : 2 channels
Channel positions : Front: L R
Sampling rate : 48.0 KHz
Frame rate : 31.250 fps (1536 spf)
Compression mode : Lossy
Stream size : 33.3 MiB (7%)
Title : Zendos & Eladiel
Language : Russian
Default : No
Forced : No
Audio #3
ID : 4
Format : AAC
Format/Info : Advanced Audio Codec
Format profile : LC
Codec ID : A_AAC
Duration : 24mn 14s
Bit rate : 199 Kbps
Channel(s) : 2 channels
Channel positions : Front: L R
Sampling rate : 48.0 KHz
Frame rate : 46.875 fps (1024 spf)
Compression mode : Lossy
Stream size : 34.5 MiB (7%)
Title : Original
Language : Japanese
Default : No
Forced : No
Text #1
ID : 5
Format : ASS
Codec ID : S_TEXT/ASS
Codec ID/Info : Advanced Sub Station Alpha
Duration : 11mn 54s
Bit rate : 55 bps
Count of elements : 49
Compression mode : Lossless
Stream size : 4.86 KiB (0%)
Title : Надписи
Language : Russian
Default : Yes
Forced : No
Text #2
ID : 6
Format : ASS
Codec ID : S_TEXT/ASS
Codec ID/Info : Advanced Sub Station Alpha
Duration : 23mn 35s
Bit rate : 200 bps
Count of elements : 376
Compression mode : Lossless
Stream size : 34.7 KiB (0%)
Title : Полные субтитры
Language : Russian
Default : No
Forced : No



   Похожие торренты   Торрент   Размер 
В этой теме нет новых непрочитанных сообщений. Владыка / Overlord [01-07+3 из 13+4] (2015) HDTVRip 720p | AniDub, SHIZA Project

66 | 38

2.93 ГБ

В этой теме нет новых непрочитанных сообщений. Владыка / Overlord [01-08+3 из 13+4] (2015) HDTVRip 720p | AniDub, SHIZA Project

47 | 22

3.32 ГБ

В этой теме нет новых непрочитанных сообщений. Владыка / Overlord [01-10+6 из 13+6] (2015) HDTVRip 720p | AniDub, SHIZA Project

31 | 28

4.24 ГБ

В этой теме нет новых непрочитанных сообщений. Владыка / Overlord [01-13+8 из 13+8] (2015) HDTVRip 720p | AniDub, SHIZA Project

541 | 137

5.54 ГБ

В этой теме нет новых непрочитанных сообщений. Владыка / Overlord [01-11+6 из 13+6] (2015) HDTVRip 720p | AniDub, SHIZA Project

28 | 30

4.6 ГБ

В этой теме нет новых непрочитанных сообщений. Затерянные Земли: Темный владыка HD / Lost Lands: Dark Overlord HD (2015) Android

168 | 5

594.08 МБ

В этой теме нет новых непрочитанных сообщений. Затерянные Земли: Темный Владыка / Lost Lands: Dark Overlord CE (2014) PC

611 | 42

801.24 МБ




Вы не можете начинать темы
Вы не можете отвечать на сообщения
Вы не можете редактировать свои сообщения
Вы не можете удалять свои сообщения
Вы не можете добавлять вложения

Перейти:  
Для Мосгорсуда, Роскомнадзора и рекламодателей: mosgorsud-torrent[собачка]yandex.ru
 Вход
ppkBB3cker v.2 © 2008-2014 @ PPK
[ Time : 0.532s | 16 Queries | GZIP : Off ]

Торрент трекер RUTOR.IN, Не можете зайти на rutor.org? Какой новый адрес рутор? Какое зеркало рутор? Не работает rutor.org и зеркала? Тогда наш торрент специально для вас. Rutor.in неофициальное зеркало rutor. В случае если у Вас заблокирован rutor или вдруг Вы не можете на него зайти, то Вы без труда сможете скачать бесплатно и без рекламы последние новинки кино, игр, сериалов и прочего у нас, на Rutor.in. Не нужно использовать прокси, чтобы зайти на рутор, достаточно воспользоваться нашим ресурсом. Все новые фильмы, игры, сериалы, книги и музыка за 2013 и 2014 годы через торрент бесплатно. Скачивайте фильмы в хорошем качестве, игры для пк, xbox, playstation без регистрации. У нас вы найдете новые Зарубежные сериалы и Русские сериалы 2013, 2014, 2015 годов. Оставайтесь с нами, качайте любимые фильмы, игры, сериалы, книги и музыку.
cron