img image001 image001 image001 image001 image001 image001 image001 image001 image001 image001 image001 image001 image001 image001 image001

Planets Sun Sun Sun
Статистика раздачи
Автор: Nickolas3434 | Размер: 3.64 ГБ | Добавлен: 06 май 2016
Раздают: 34    Качают: 1
Скачать торрент
Скачать торрент
Описание торрента

СообщениеДобавлено: 06 май 2016 


Информация о фильме
Название: Оборотни
Оригинальное название: Jin-Rô / Jin-Roh: The Wolf Brigade
Год выхода: 1999
Жанр: драма, триллер, фантастика
Режиссер: Окиура Хироюки, Камияма Кэндзи
Художник: Огура Хиромаса
В ролях: Фудзики Ёсикацу, Муто Суми, Киносита Хироюки, Хирота Косэй, Ёсида Юкихиро, Хорибэ Рюйти, Сэндай Эри, Накагава Кэндзи, Оки Тамио
Сакагути Ёсисада
О фильме:
Альтернативная реальность. Токио, 50-ые годы XX века. Город утопает в волнах насилия и жестокости. Подпольная организация «Секта», устраивает массовые беспорядки и терракты. Отвечая на вызов террористов, власти создают особое подразделение — «Волчий отряд», состоящий из специально подготовленных, закованных в броню, неуязвимых, безжалостных убийц.

World Art | MAL
Ограничения по возрасту: 16+ (зрителям, достигшим 16 лет)
Рейтинг MPAA: R (лицам до 17 лет обязательно присутствие взрослого)
Страна: Япония
Студия: Production I.G
Продолжительность: 01:41:58
Перевод: Профессиональный (многоголосый закадровый), Авторский (одноголосый закадровый)
Язык: Русский, японский
Файл
Качество: BDRip 720p
Формат: MKV
Видео: x264, 1280x692, 23.976, x264 High@L5.1, 3440 Kbps,
Аудио#1: Русский: 48 kHz, AC3, 3/2 (L,C,R,l,r) + LFE ch,~448.00 kbps avg |Многоголосый закадровый|
Аудио#2: Русский: 48 kHz, AC3, 3/2 (L,C,R,l,r) + LFE ch,~640.00 kbps avg |Одноголосый закадровый - Петр Гланц|
Аудио#3: Japanese: 48 kHz, AC3, 3/2 (L,C,R,l,r) + LFE ch,~640.00 kbps avg
Субтитры: Русские, Английские
Релиз:

General
Format : Matroska
Format version : Version 1
File size : 3.64 GiB
Duration : 1h 41mn
Overall bit rate : 5 109 Kbps
Encoded date : UTC 2008-05-15 17:22:07
Writing application : mkvmerge v2.0.2 ('You're My Flame') built on Feb 22 2007 00:05:35
Writing library : libebml v0.7.7 + libmatroska v0.8.1
Attachments : ARABOLIC.TTF / Arabolical.ttf / Bengotbi.ttf / Bengothb.ttf / Bengothn.ttf / Bengotni.ttf / BRUSHED.TTF / BRUSHED_.TTF
Video
ID : 1
Format : AVC
Format/Info : Advanced Video Codec
Format profile : High@L5.1
Format settings, CABAC : Yes
Format settings, ReFrames : 13 frames
Codec ID : V_MPEG4/ISO/AVC
Duration : 1h 41mn
Bit rate : 3 440 Kbps
Width : 1 280 pixels
Height : 692 pixels
Display aspect ratio : 1.85:1
Frame rate mode : Constant
Frame rate : 23.976 fps
Color space : YUV
Chroma subsampling : 4:2:0
Bit depth : 8 bits
Scan type : Progressive
Bits/(Pixel*Frame) : 0.162
Stream size : 2.38 GiB (65%)
Writing library : x264 core 56 svn-680
Encoding settings : cabac=1 / ref=10 / deblock=1:-3:-3 / analyse=0x3:0x133 / me=umh / subme=7 / brdo=1 / mixed_ref=1 / me_range=16 / chroma_me=1 / trellis=0 / 8x8dct=1 / cqm=2 / deadzone=9,9 / chroma_qp_offset=0 / threads=6 / nr=0 / decimate=1 / mbaff=0 / bframes=10 / b_pyramid=1 / b_adapt=1 / b_bias=0 / direct=1 / wpredb=1 / bime=1 / keyint=250 / keyint_min=25 / scenecut=40(pre) / rc=2pass / bitrate=3440 / ratetol=1.0 / rceq='blurCplx^(1-qComp)' / qcomp=0.60 / qpmin=10 / qpmax=51 / qpstep=4 / cplxblur=20.0 / qblur=0.5 / ip_ratio=1.40 / pb_ratio=1.30 / aq=1:0.7:15.0
Language : English
Default : Yes
Forced : No
Audio #1
ID : 2
Format : AC-3
Format/Info : Audio Coding 3
Mode extension : CM (complete main)
Format settings, Endianness : Big
Codec ID : A_AC3
Duration : 1h 41mn
Bit rate mode : Constant
Bit rate : 384 Kbps
Channel(s) : 6 channels
Channel positions : Front: L C R, Side: L R, LFE
Sampling rate : 48.0 KHz
Frame rate : 31.250 fps (1536 spf)
Compression mode : Lossy
Stream size : 280 MiB (8%)
Title : AC3 5.1 384 Kbps
Language : Russian
Default : Yes
Forced : No
Audio #2
ID : 3
Format : AC-3
Format/Info : Audio Coding 3
Mode extension : CM (complete main)
Format settings, Endianness : Big
Codec ID : A_AC3
Duration : 1h 41mn
Bit rate mode : Constant
Bit rate : 640 Kbps
Channel(s) : 6 channels
Channel positions : Front: L C R, Side: L R, LFE
Sampling rate : 48.0 KHz
Frame rate : 31.250 fps (1536 spf)
Compression mode : Lossy
Stream size : 467 MiB (13%)
Title : AC3 5.1 640 Kbps [Glanz]
Language : Russian
Default : No
Forced : No
Audio #3
ID : 4
Format : AC-3
Format/Info : Audio Coding 3
Mode extension : CM (complete main)
Format settings, Endianness : Big
Codec ID : A_AC3
Duration : 1h 41mn
Bit rate mode : Constant
Bit rate : 640 Kbps
Channel(s) : 6 channels
Channel positions : Front: L C R, Side: L R, LFE
Sampling rate : 48.0 KHz
Frame rate : 31.250 fps (1536 spf)
Compression mode : Lossy
Stream size : 467 MiB (13%)
Title : AC3 5.1 640 Kbps
Language : Japanese
Default : No
Forced : No
Text #1
ID : 5
Format : UTF-8
Codec ID : S_TEXT/UTF8
Codec ID/Info : UTF-8 Plain Text
Language : Russian
Default : Yes
Forced : No
Text #2
ID : 6
Format : ASS
Codec ID : S_TEXT/ASS
Codec ID/Info : Advanced Sub Station Alpha
Compression mode : Lossless
Language : English
Default : No
Forced : No



   Похожие торренты   Торрент   Размер 
В этой теме нет новых непрочитанных сообщений. Оборотни / Cursed (2005) BDRip 720p | Theatrical Cut

0 | 2

4.88 ГБ

В этой теме нет новых непрочитанных сообщений. Оборотни / Cursed (2005) BDRip 720p от FLINTFILMS

0 | 2

2.24 ГБ

В этой теме нет новых непрочитанных сообщений. Оборотни / Cursed (2005) BDRip 720p от Element team

0 | 2

2.18 ГБ

В этой теме нет новых непрочитанных сообщений. Томми - оборотень / Big Wolf on Campus [S01-03] (1999-2002) TVRip | D

11 | 5

12.11 ГБ

В этой теме нет новых непрочитанных сообщений. Серебряный волк / Silver Wolf (1999) DVDRip от Киномагия

553 | 2

1.37 ГБ

В этой теме нет новых непрочитанных сообщений. Оборотни / Cursed (2005) BDRip от HQCLUB

34 | 7

2.18 ГБ

В этой теме нет новых непрочитанных сообщений. Оборотни / Cursed (2005) BDRip 1080p | D, A

15 | 6

9.88 ГБ




Вы не можете начинать темы
Вы не можете отвечать на сообщения
Вы не можете редактировать свои сообщения
Вы не можете удалять свои сообщения
Вы не можете добавлять вложения

Перейти:  
Для Мосгорсуда, Роскомнадзора и рекламодателей: mosgorsud-torrent[собачка]yandex.ru
 Вход
ppkBB3cker v.2 © 2008-2014 @ PPK
[ Time : 0.594s | 15 Queries | GZIP : Off ]

Торрент трекер RUTOR.IN, Не можете зайти на rutor.org? Какой новый адрес рутор? Какое зеркало рутор? Не работает rutor.org и зеркала? Тогда наш торрент специально для вас. Rutor.in неофициальное зеркало rutor. В случае если у Вас заблокирован rutor или вдруг Вы не можете на него зайти, то Вы без труда сможете скачать бесплатно и без рекламы последние новинки кино, игр, сериалов и прочего у нас, на Rutor.in. Не нужно использовать прокси, чтобы зайти на рутор, достаточно воспользоваться нашим ресурсом. Все новые фильмы, игры, сериалы, книги и музыка за 2013 и 2014 годы через торрент бесплатно. Скачивайте фильмы в хорошем качестве, игры для пк, xbox, playstation без регистрации. У нас вы найдете новые Зарубежные сериалы и Русские сериалы 2013, 2014, 2015 годов. Оставайтесь с нами, качайте любимые фильмы, игры, сериалы, книги и музыку.
cron