img image001 image001 image001 image001 image001 image001 image001 image001 image001 image001 image001 image001 image001 image001 image001

Planets Sun Sun Sun
Статистика раздачи
Автор: Nickolas3434 | Размер: 1.37 ГБ | Добавлен: 13 май 2016
Раздают: 82    Качают: 8
Скачать торрент
Скачать торрент
Описание торрента

СообщениеДобавлено: 13 май 2016 


Остров забвения: Харука и волшебное зеркало / Oblivion Island: Haruka and the Magic Mirror / Hottarake no shima - Haruka to maho no kagami
Страна: Япония
Производство: Production I.G., Fuji Television Network Inc., Dentsu
Год выпуска: 2009
Жанр: аниме, мультфильм, приключения
Продолжительность: 01:38:44
Режиссер: Синсуке Сато
Авторы сценария: Оцуити, Синсуке Сато, Кристи Рид
В ролях: Кристин Мари Кабанос, Патрик Сэйтц, Джули Маддалена, Джули Энн Тейлор, Кассандра Моррис, Дэвид Роач, Мио Танака
Описание: 16-летняя Харука в раннем детстве потеряла мать и жила вместе с отцом. Чтобы одолеть боль утраты, отец с головой погрузился в работу, а девочка выросла, считая, что особо никому не нужна. Однажды, когда тоска совсем одолела, Харука решила глянуть на старое зеркало — подарок и память о матери — и не нашла его. Тут она и вспомнила местную легенду о таинственных созданиях, которые за небольшое подношение могут вернуть любимые вещи. Придя в древний храм, героиня совершила ритуал и вправду увидела таинственное создание в маске. Так из-за извечного женского любопытства японская школьница попала в иной мир, на остров Забвения, где кроются утраченные вещи и воспоминания.
Перед нами старая история взросления через путешествие по Зазеркалью собственной души, рассказанная на новый лад. Пускай Харука не Алиса, и погналась не за белым кроликом, а за рыжим лисенком — какая разница? Ибо сюжет этот вечный, а исполнение выше всяких похвал..!

Субтитры: нет
Перевод: Профессиональный (многоголосый, закадровый) | R5

Качество: НDRip
Формат: AVI
Видео кодек: XviD
Аудио кодек: AС3
Видео: 720x400 (16:9), 23.976 fps, XviD ~1 524 kbps avg, 0.221 bit/pixel
Аудио: 48.0 kHz, AC3 Dolby Digital, 3/2 (L,C,R,l,r) + LFE ch, ~448 kbps
Дата премьеры (мир): 22 августа 2009
Дата премьеры (РФ): 7 октября 2010, «Премиум Фильм»
General
Complete name : Hottarake.No.Shima.Haruka.To.Maho.No.Kagami.2009.P.HDRip.avi
Format : AVI
Format/Info : Audio Video Interleave
File size : 1.37 GiB
Duration : 1h 38mn
Overall bit rate : 1 981 Kbps
Writing application : VirtualDubModRus 1.5.10.2 (build 2542/release)
Writing library : VirtualDubMod build 2542/release
Video #0
ID : 0
Format : MPEG-4 Visual
Format profile : Advanced Simple@L5
Format settings, BVOP : Yes
Format settings, QPel : No
Format settings, GMC : No warppoints
Format settings, Matrix : Default (MPEG)
Codec ID : XVID
Codec ID/Hint : XviD
Duration : 1h 38mn
Bit rate : 1 524 Kbps
Width : 720 pixels
Height : 400 pixels
Display aspect ratio : 16:9
Frame rate : 23.976 fps
Color space : YUV
Chroma subsampling : 4:2:0
Bit depth : 8 bits
Scan type : Progressive
Compression mode : Lossy
Bits/(Pixel*Frame) : 0.221
Stream size : 1.05 GiB (77%)
Writing library : XviD 1.2.1 (UTC 2008-12-04)
Audio #1
ID : 1
Format : AC-3
Format/Info : Audio Coding 3
Mode extension : CM (complete main)
Codec ID : 2000
Duration : 1h 38mn
Bit rate mode : Constant
Bit rate : 448 Kbps
Channel(s) : 6 channels
Channel positions : Front: L C R, Side: L R, LFE
Sampling rate : 48.0 KHz
Bit depth : 16 bits
Compression mode : Lossy
Video delay : 30ms
Stream size : 316 MiB (23%)
Alignment : Split accross interleaves
Interleave, duration : 42 ms (1.00 video frame)
Interleave, preload duration : 500 ms




   Похожие торренты   Торрент   Размер 
В этой теме нет новых непрочитанных сообщений. Остров забвения: Харука и волшебное зеркало / Hottarake no shima - Haruka to maho no kagami (2009) BDRip 1080p | Р, L1

28 | 6

4.65 ГБ

В этой теме нет новых непрочитанных сообщений. Остров Забвения: Харука и волшебное зеркало / Hottarake no Shima: Haruka to Mahou no Kagami (2009) BDRip 720p

131 | 4

1.62 ГБ

В этой теме нет новых непрочитанных сообщений. Остров Забвения: Харука и волшебное зеркало / Hottarake no Shima: Haruka to Mahou no Kagami (2009) BDRip от Stranik 2.0

17 | 6

1.91 ГБ

В этой теме нет новых непрочитанных сообщений. Остров Забвения: Харука и волшебное зеркало / Oblivion Island: Haruka and the Magic Mirror (2009) BDRip от Freeisland

159 | 10

4.37 ГБ

В этой теме нет новых непрочитанных сообщений. Остров Забвения: Харука и волшебное зеркало / Oblivion Island: Haruka and the Magic Mirror (2009) BDRip от Freeisland

5 | 6

4.37 ГБ

В этой теме нет новых непрочитанных сообщений. Харука Ногидзаки 2: Прощай невинность! / Nogizaka Haruka 2: Arrivederci Purezza [5 из 12] (2009) TVRip 720p

32 | 15

379.97 МБ

В этой теме нет новых непрочитанных сообщений. Харука Ногидзаки 2: Прощай невинность! / Nogizaka Haruka 2: Arrivederci Purezza [1 из 12] (2009) TVRip 720p

14 | 23

394.56 МБ




Вы не можете начинать темы
Вы не можете отвечать на сообщения
Вы не можете редактировать свои сообщения
Вы не можете удалять свои сообщения
Вы не можете добавлять вложения

Перейти:  
Для Мосгорсуда, Роскомнадзора и рекламодателей: mosgorsud-torrent[собачка]yandex.ru
 Вход
ppkBB3cker v.2 © 2008-2014 @ PPK
[ Time : 0.058s | 14 Queries | GZIP : Off ]

Торрент трекер RUTOR.IN, Не можете зайти на rutor.org? Какой новый адрес рутор? Какое зеркало рутор? Не работает rutor.org и зеркала? Тогда наш торрент специально для вас. Rutor.in неофициальное зеркало rutor. В случае если у Вас заблокирован rutor или вдруг Вы не можете на него зайти, то Вы без труда сможете скачать бесплатно и без рекламы последние новинки кино, игр, сериалов и прочего у нас, на Rutor.in. Не нужно использовать прокси, чтобы зайти на рутор, достаточно воспользоваться нашим ресурсом. Все новые фильмы, игры, сериалы, книги и музыка за 2013 и 2014 годы через торрент бесплатно. Скачивайте фильмы в хорошем качестве, игры для пк, xbox, playstation без регистрации. У нас вы найдете новые Зарубежные сериалы и Русские сериалы 2013, 2014, 2015 годов. Оставайтесь с нами, качайте любимые фильмы, игры, сериалы, книги и музыку.