img image001 image001 image001 image001 image001 image001 image001 image001 image001 image001 image001 image001 image001 image001 image001

Planets Sun Sun Sun
Статистика раздачи
Автор: Nickolas3434 | Размер: 2.46 ГБ | Добавлен: 16 май 2016
Раздают: 5    Качают: 2
Скачать торрент
Скачать торрент
Описание торрента

СообщениеДобавлено: 16 май 2016 


Информация о фильме
Название: Первоклассный адвокат
Оригинальное название: Gyakuten Saiban
Год выхода: 2016
Жанр: драма, комедия, детектив
Режиссер: Ватанабэ Аюму
Художник: Ивасэ Эйдзи, Охира Цукаса
В ролях: Кадзи Юки, Юки Аой, Тамаки Масаси, Накамура Тиэ, Ивасаки Масами, Нара Тору
О фильме:
Судебная система, что принята во всем мире как должное, предполагает две стороны. Сторона обвинения и сторона защиты. Обычно добропорядочный гражданин должен быть на стороне обвинения, ибо преступник должен быть наказан. А что, если подсудимый на самом деле не виновен, а настоящий преступник - вовсе другой человек?
Именно на основе этих мыслей и подался в адвокаты Наруходо Рюичи, парень с весьма незаурядным мышлением и острым умом. На эту работу его сподвиг поступок его друга в младших классах, когда тот смог доказать невиновность Рюичи. Однако адвокатура - занятие весьма непростое. Пускай наш герой и обладает прекрасными данными для этого дела, но и сторона обвинения не одну собаку на этом деле съела.
Постарайся, Рюичи-сан!
World Art | MAL
Страна: Япония
Студия: A-1 Pictures Inc.
Продолжительность: 00:24:10
Язык: Русский, Японский
Перевод: Любительский (двухголосый, закадровый)
Файл
Качество: HDTVRip
Формат: MKV
Кодек: H.264
Аудио кодек: AAC
Видео: 1280x720, 23.976 fps, 2000 kbps
Аудио RUS: 48.0 kHz, AAC, 2 ch, 192 kbps - SHIZA Project
Аудио RUS: 48.0 kHz, AAC, 2 ch, 96 kbps - AniDub
Аудио JAP: 48.0 kHz, AAC, 2 ch, 192 kbps
Субтитры: русские (встроенные надписи, ASS), русские (встроенные полный перевод, ASS) - AleX_MytH, русские (встроенные полный перевод, ASS) - AOS Team
Релиз от:
Озвучивание: Dancel, Tomoko
Перевод: Himmel11th
Тайминг и работа со звуком: AggeL
Релиз от:
Озвучивание: Гамлетка Цезаревна, 9й Неизвестный
Перевод: Skirata
Тайминг и работа со звуком: 9й Неизвестный

01. Первый Переворот
02. Переворотные Сестры — Процесс Первый
03. Переворотные Сёстры — Второй Процесс
04. Переворотные Сёстры — Последнее Заседание
05. Переворотный Самурай — Процесс Первый
06. Переворотный Самурай — Второй Процесс
General
Format : Matroska
Format version : Version 4 / Version 2
File size : 442 MiB
Duration : 24mn 10s
Overall bit rate : 2 556 Kbps
Encoded date : UTC 2016-05-15 10:53:18
Writing application : mkvmerge v8.3.0 ('Over the Horizon') 64bit
Writing library : libebml v1.3.1 + libmatroska v1.4.2
Video
ID : 1
Format : AVC
Format/Info : Advanced Video Codec
Format profile : High@L4.1
Format settings, CABAC : Yes
Format settings, ReFrames : 4 frames
Codec ID : V_MPEG4/ISO/AVC
Duration : 24mn 9s
Bit rate : 2 071 Kbps
Width : 1 280 pixels
Height : 720 pixels
Display aspect ratio : 16:9
Frame rate mode : Constant
Frame rate : 23.976 (24000/1001) fps
Color space : YUV
Chroma subsampling : 4:2:0
Bit depth : 8 bits
Scan type : Progressive
Bits/(Pixel*Frame) : 0.094
Stream size : 358 MiB (81%)
Writing library : x264 core 129 r2245+729M 1a52e03
Encoding settings : cabac=1 / ref=4 / deblock=1:1:-1 / analyse=0x3:0x113 / me=umh / subme=9 / psy=1 / fade_compensate=0.00 / psy_rd=1.00:0.00 / mixed_ref=1 / me_range=24 / chroma_me=1 / trellis=2 / 8x8dct=1 / cqm=0 / deadzone=21,11 / fast_pskip=1 / chroma_qp_offset=-2 / threads=8 / lookahead_threads=1 / sliced_threads=0 / nr=0 / decimate=1 / interlaced=0 / bluray_compat=0 / constrained_intra=0 / fgo=0 / bframes=9 / b_pyramid=2 / b_adapt=2 / b_bias=0 / direct=1 / weightb=1 / open_gop=0 / weightp=2 / keyint=240 / keyint_min=24 / scenecut=40 / intra_refresh=0 / rc=crf / mbtree=0 / crf=18.5 / qcomp=0.72 / qpmin=0 / qpmax=69 / qpstep=4 / ip_ratio=1.40 / pb_ratio=1.30 / aq=1:0.85
Language : Japanese
Default : No
Forced : No
Color range : Limited
Color primaries : BT.709
Transfer characteristics : BT.709
Matrix coefficients : BT.709
Audio #1
ID : 2
Format : AAC
Format/Info : Advanced Audio Codec
Format profile : LC
Codec ID : A_AAC
Duration : 24mn 9s
Bit rate : 192 Kbps
Channel(s) : 2 channels
Channel positions : Front: L R
Sampling rate : 48.0 KHz
Frame rate : 46.875 fps (1024 spf)
Compression mode : Lossy
Stream size : 33.2 MiB (8%)
Title : SHIZA Project
Language : Russian
Default : Yes
Forced : No
Audio #2
ID : 3
Format : AAC
Format/Info : Advanced Audio Codec
Format profile : LC
Codec ID : A_AAC
Duration : 24mn 10s
Bit rate : 96.0 Kbps
Channel(s) : 2 channels
Channel positions : Front: L R
Sampling rate : 48.0 KHz
Frame rate : 46.875 fps (1024 spf)
Compression mode : Lossy
Stream size : 16.6 MiB (4%)
Title : AniDub
Language : Russian
Default : No
Forced : No
Audio #3
ID : 4
Format : AAC
Format/Info : Advanced Audio Codec
Format profile : LC
Codec ID : A_AAC
Duration : 24mn 9s
Bit rate : 192 Kbps
Channel(s) : 2 channels
Channel positions : Front: L R
Sampling rate : 48.0 KHz
Frame rate : 46.875 fps (1024 spf)
Compression mode : Lossy
Stream size : 33.2 MiB (8%)
Title : JAP Original
Language : Japanese
Default : No
Forced : No
Text #1
ID : 5
Format : ASS
Codec ID : S_TEXT/ASS
Codec ID/Info : Advanced Sub Station Alpha
Duration : 23mn 11s
Bit rate : 18 bps
Count of elements : 35
Compression mode : Lossless
Stream size : 3.12 KiB (0%)
Title : Надписи
Language : Russian
Default : Yes
Forced : No
Text #2
ID : 6
Format : ASS
Codec ID : S_TEXT/ASS
Codec ID/Info : Advanced Sub Station Alpha
Duration : 23mn 55s
Bit rate : 172 bps
Count of elements : 409
Compression mode : Lossless
Stream size : 30.2 KiB (0%)
Title : Полные субтитры - AleX_MytH
Language : Russian
Default : No
Forced : No
Text #3
ID : 7
Format : ASS
Codec ID : S_TEXT/ASS
Codec ID/Info : Advanced Sub Station Alpha
Duration : 23mn 56s
Bit rate : 152 bps
Count of elements : 392
Compression mode : Lossless
Stream size : 26.8 KiB (0%)
Title : Полные субтитры - AOS Team
Language : Russian
Default : No
Forced : No
Когда раздача ведётся путём добавления новых серий, при каждом добавлении создётся новый торрент. Чтобы начать докачку новой серии, пользователям необходимо сделать следующее:
(1) остановить скачивание,
(2) удалить старый торрент у себя из клиента (старые серии удалять не надо),
(3) скачать новый торрент и запустить его у себя в клиенте вместо старого, при этом указать клиенту путь в старую папку, куда и должно происходить скачивание новых серий.
Ваш клиент при этом должен произвести хеширование (проверку) старой папки (если не производит сам - помогите ему сделать это), и будет докачивать только те серии, которых у вас ещё нет. Старые серии при этом не удаляются, а продолжают раздаваться!
Eсли вы уже удалили старые серии, то предотвратить повторную закачку старых серий можно, отжав галочку в соответсвующих местах при запуске нового торрента. По возможности, желательно не удалять старые серии как можно дольше, чтобы релизёр не столько продолжал раздавать старые серии, а смог сконцентрироваться на новых.



   Похожие торренты   Торрент   Размер 
В этой теме нет новых непрочитанных сообщений. Первоклассный адвокат / Gyakuten Saiban [01-06 из 12] (2016) HDTVRip 720p | AniDub, SHIZA Project

17 | 5

4.13 ГБ

В этой теме нет новых непрочитанных сообщений. Первоклассный адвокат / Gyakuten Saiban [01-02 из 12] (2016) HDTVRip 720p | AniDub, SHIZA Project

0 | 0

865.95 МБ

В этой теме нет новых непрочитанных сообщений. Первоклассный адвокат / Gyakuten Saiban [01-16 из 25] (2016) HDTVRip 720p | AniDub, SHIZA Project

11 | 9

6.34 ГБ

В этой теме нет новых непрочитанных сообщений. Первоклассный адвокат / Gyakuten Saiban [01-02 из 12] (2016) HDTVRip 720p | AniDub, SHIZA Project

5 | 2

1.22 ГБ

В этой теме нет новых непрочитанных сообщений. Первоклассный адвокат / Gyakuten Saiban [01-06 из 12] (2016) HDTVRip 720p | AniDub, SHIZA Project

2 | 0

2.86 ГБ

В этой теме нет новых непрочитанных сообщений. Первоклассный адвокат / Gyakuten Saiban (2012) DVDRip | L1

1 | 12

2.06 ГБ

В этой теме нет новых непрочитанных сообщений. Первоклассный адвокат / Gyakuten saiban (2012) BDRip-AVC от Киномагия

1 | 5

2.98 ГБ




Вы не можете начинать темы
Вы не можете отвечать на сообщения
Вы не можете редактировать свои сообщения
Вы не можете удалять свои сообщения
Вы не можете добавлять вложения

Перейти:  
Для Мосгорсуда, Роскомнадзора и рекламодателей: mosgorsud-torrent[собачка]yandex.ru
 Вход
ppkBB3cker v.2 © 2008-2014 @ PPK
[ Time : 0.038s | 14 Queries | GZIP : Off ]

Торрент трекер RUTOR.IN, Не можете зайти на rutor.org? Какой новый адрес рутор? Какое зеркало рутор? Не работает rutor.org и зеркала? Тогда наш торрент специально для вас. Rutor.in неофициальное зеркало rutor. В случае если у Вас заблокирован rutor или вдруг Вы не можете на него зайти, то Вы без труда сможете скачать бесплатно и без рекламы последние новинки кино, игр, сериалов и прочего у нас, на Rutor.in. Не нужно использовать прокси, чтобы зайти на рутор, достаточно воспользоваться нашим ресурсом. Все новые фильмы, игры, сериалы, книги и музыка за 2013 и 2014 годы через торрент бесплатно. Скачивайте фильмы в хорошем качестве, игры для пк, xbox, playstation без регистрации. У нас вы найдете новые Зарубежные сериалы и Русские сериалы 2013, 2014, 2015 годов. Оставайтесь с нами, качайте любимые фильмы, игры, сериалы, книги и музыку.