img image001 image001 image001 image001 image001 image001 image001 image001 image001 image001 image001 image001 image001 image001 image001

Planets Sun Sun Sun
Статистика раздачи
Автор: Nickolas3434 | Размер: 4.38 ГБ | Добавлен: 27 май 2016
Раздают: 22    Качают: 3
Скачать торрент
Скачать торрент
Описание торрента

СообщениеДобавлено: 27 май 2016 


Информация о фильме
Название: Ариэтти из страны лилипутов
Оригинальное название: Kari-gurashi no Arietti
Год выхода: 2010
Жанр: аниме, мультфильм, фэнтези
Режиссер: Хиромаса Ёнэбаяси
В ролях: Мираи Сида, Рюноскэ Камики, Мойзес Ариас, Бриджит Мендлер, Дэвид Генри, Уилл Арнетт, Кэрол Бёрнетт, Эми Полер, Синити Хатори, Сирша Ронан
О фильме:
История маленьких людей, которые живут рядом с нами, одалживая вещи по чуть-чуть. Их существование хранится в секрете. Но юная Ариэти нарушает запрет. Ее обнаруживает 14-летний Шо, и они становятся лучшими друзьями.

Страна: Япония
Студия: Buena Vista Home Entertainment, Hakuhodo DY Media Partners, Toho Company, Walt Disney Company
Продолжительность: 01:34:07
Перевод: Профессиональный (дублированный) CP-Digital + Профессиональный (двухголосый, закадровый) BBC Saint-Petersburg + Авторский (одноголосый, закадровый) Ю.Сербин
Релиз:
Файл
Формат: Matroska
Видео: 1280x692 at 23.976 fps, x264@L4.1, ~4000 kbps avg
Аудио#1: Russian: 48 kHz, AC3, 3/2 (L,C,R,l,r) + LFE ch, ~640.00 kbps avg |Дубляж, CP-Digital|
Аудио#2: Russian: 48 kHz, AC3, 3/2 (L,C,R,l,r) + LFE ch, ~640.00 kbps avg |Двухголосый закадровый, BBC Saint-Petersburg|
Аудио#3: Russian: 48 kHz, AC3, 3/2 (L,C,R,l,r) + LFE ch, ~448.00 kbps avg |Авторский, Ю.Сербин|
Аудио#4: English: 48 kHz, AC3, 3/2 (L,C,R,l,r) + LFE ch, ~256.00 kbps avg
Аудио#5: Japanese: 48 kHz, AC3, 3/2 (L,C,R,l,r) + LFE ch, ~640.00 kbps avg
Субтитры: Russian (x5), English (x2), Japanese
***Сохранены оригинальные главы как на Blu-ray.
***Автор рипа: potroks.
Общее
Уникальный идентификатор : 199772403000325052091332182171564494257 (0x964AC3EAB4472E299EF04502AEDDCDB1)
Полное имя : Ariyetti.Iz.Strany.Liliputov.20110.3xRus.Eng.Jpn.BDRip.720p.-HELLYWOOD.mkv
Формат : Matroska
Версия формата : Version 4 / Version 2
Размер файла : 4,38 Гбайт
Продолжительность : 1 ч. 34 м.
Общий поток : 6647 Кбит/сек
Название фильма : Kari-gurashi no Arietti (2010)
Дата кодирования : UTC 2016-05-26 11:37:11
Программа кодирования : mkvmerge v5.9.0 ('On The Loose') built on Dec 15 2012 16:39:58
Библиотека кодирования : libebml v1.3.0 + libmatroska v1.4.0
Видео
Идентификатор : 1
Формат : AVC
Формат/Информация : Advanced Video Codec
Профиль формата : High@L4.1
Параметр CABAC формата : Да
Параметр ReFrames формата : 9 кадров
Идентификатор кодека : V_MPEG4/ISO/AVC
Продолжительность : 1 ч. 34 м.
Битрейт : 4020 Кбит/сек
Ширина : 1280 пикселей
Высота : 692 пикселя
Соотношение сторон : 1,85:1
Режим частоты кадров : Постоянный
Частота кадров : 23,976 кадра/сек
Цветовое пространство : YUV
Субдискретизация насыщенности : 4:2:0
Битовая глубина : 8 бит
Тип развёртки : Прогрессивная
Бит/(Пиксели*Кадры) : 0.189
Размер потока : 2,56 Гбайт (59%)
Заголовок : potroks
Библиотека кодирования : x264 core 148 r2694M 3b70645
Настройки программы : cabac=1 / ref=9 / deblock=1:-1:-1 / analyse=0x3:0x133 / me=umh / subme=11 / psy=1 / psy_rd=1.06:0.10 / mixed_ref=1 / me_range=48 / chroma_me=1 / trellis=2 / 8x8dct=1 / cqm=0 / deadzone=21,11 / fast_pskip=0 / chroma_qp_offset=-3 / threads=9 / lookahead_threads=2 / sliced_threads=0 / nr=0 / decimate=0 / interlaced=0 / bluray_compat=0 / constrained_intra=0 / bframes=10 / b_pyramid=2 / b_adapt=2 / b_bias=0 / direct=3 / weightb=1 / open_gop=0 / weightp=2 / keyint=240 / keyint_min=23 / scenecut=40 / intra_refresh=0 / rc_lookahead=100 / rc=2pass / mbtree=0 / bitrate=4020 / ratetol=1.0 / qcomp=0.70 / qpmin=0 / qpmax=69 / qpstep=4 / cplxblur=20.0 / qblur=0.5 / vbv_maxrate=50000 / vbv_bufsize=60000 / nal_hrd=none / filler=0 / ip_ratio=1.40 / pb_ratio=1.30 / aq=1:0.80
Язык : Japanese
Default : Да
Forced : Нет
Цветовой диапазон : Limited
Основные цвета : BT.709
Характеристики трансфера : BT.709
Коэффициенты матрицы : BT.709
Аудио #1
Идентификатор : 2
Формат : AC-3
Формат/Информация : Audio Coding 3
Расширение режима : CM (complete main)
Параметр Endianness формата : Big
Идентификатор кодека : A_AC3
Продолжительность : 1 ч. 34 м.
Вид битрейта : Постоянный
Битрейт : 640 Кбит/сек
Каналы : 6 каналов
Расположение каналов : Front: L C R, Side: L R, LFE
Частота : 48,0 КГц
Метод сжатия : С потерями
Размер потока : 431 Мбайт (10%)
Заголовок : Dub | DD 5.1 @ 640 kbps - CP Digital
Язык : Russian
Default : Да
Forced : Нет
Аудио #2
Идентификатор : 3
Формат : AC-3
Формат/Информация : Audio Coding 3
Расширение режима : CM (complete main)
Параметр Endianness формата : Big
Идентификатор кодека : A_AC3
Продолжительность : 1 ч. 34 м.
Вид битрейта : Постоянный
Битрейт : 640 Кбит/сек
Каналы : 6 каналов
Расположение каналов : Front: L C R, Side: L R, LFE
Частота : 48,0 КГц
Метод сжатия : С потерями
Размер потока : 431 Мбайт (10%)
Заголовок : DVO | DD 5.1 @ 640 kbps - BBC Spb
Язык : Russian
Default : Нет
Forced : Нет
Аудио #3
Идентификатор : 4
Формат : AC-3
Формат/Информация : Audio Coding 3
Расширение режима : CM (complete main)
Параметр Endianness формата : Big
Идентификатор кодека : A_AC3
Продолжительность : 1 ч. 34 м.
Вид битрейта : Постоянный
Битрейт : 448 Кбит/сек
Каналы : 6 каналов
Расположение каналов : Front: L C R, Side: L R, LFE
Частота : 48,0 КГц
Метод сжатия : С потерями
Размер потока : 302 Мбайт (7%)
Заголовок : AVO | DD 5.1 @ 448 kbps - Yu.Serbin
Язык : Russian
Default : Нет
Forced : Нет
Аудио #4
Идентификатор : 5
Формат : AC-3
Формат/Информация : Audio Coding 3
Расширение режима : CM (complete main)
Параметр Endianness формата : Big
Идентификатор кодека : A_AC3
Продолжительность : 1 ч. 34 м.
Вид битрейта : Постоянный
Битрейт : 256 Кбит/сек
Каналы : 6 каналов
Расположение каналов : Front: L C R, Side: L R, LFE
Частота : 48,0 КГц
Метод сжатия : С потерями
Размер потока : 173 Мбайт (4%)
Заголовок : DD 5.1 @ 256 kbps - Disney
Язык : English
Default : Нет
Forced : Нет
Аудио #5
Идентификатор : 6
Формат : AC-3
Формат/Информация : Audio Coding 3
Расширение режима : CM (complete main)
Параметр Endianness формата : Big
Идентификатор кодека : A_AC3
Продолжительность : 1 ч. 34 м.
Вид битрейта : Постоянный
Битрейт : 640 Кбит/сек
Каналы : 6 каналов
Расположение каналов : Front: L C R, Side: L R, LFE
Частота : 48,0 КГц
Метод сжатия : С потерями
Размер потока : 431 Мбайт (10%)
Заголовок : Original | DD 5.1 @ 640 kbps
Язык : Japanese
Default : Нет
Forced : Нет
Текст #1
Идентификатор : 7
Формат : UTF-8
Идентификатор кодека : S_TEXT/UTF8
Идентификатор кодека/Информация : UTF-8 Plain Text
Заголовок : R5 [CP Digital]
Язык : Russian
Default : Нет
Forced : Нет
Текст #2
Идентификатор : 8
Формат : UTF-8
Идентификатор кодека : S_TEXT/UTF8
Идентификатор кодека/Информация : UTF-8 Plain Text
Заголовок : m1el
Язык : Russian
Default : Нет
Forced : Нет
Текст #3
Идентификатор : 9
Формат : UTF-8
Идентификатор кодека : S_TEXT/UTF8
Идентификатор кодека/Информация : UTF-8 Plain Text
Заголовок : Panina
Язык : Russian
Default : Нет
Forced : Нет
Текст #4
Идентификатор : 10
Формат : UTF-8
Идентификатор кодека : S_TEXT/UTF8
Идентификатор кодека/Информация : UTF-8 Plain Text
Заголовок : TF-AniGroup
Язык : Russian
Default : Нет
Forced : Нет
Текст #5
Идентификатор : 11
Формат : UTF-8
Идентификатор кодека : S_TEXT/UTF8
Идентификатор кодека/Информация : UTF-8 Plain Text
Заголовок : Gabriel Hounds
Язык : Russian
Default : Нет
Forced : Нет
Текст #6
Идентификатор : 12
Формат : ASS
Идентификатор кодека : S_TEXT/ASS
Идентификатор кодека/Информация : Advanced Sub Station Alpha
Метод сжатия : Без потерь
Язык : Japanese
Default : Нет
Forced : Нет
Текст #7
Идентификатор : 13
Формат : UTF-8
Идентификатор кодека : S_TEXT/UTF8
Идентификатор кодека/Информация : UTF-8 Plain Text
Заголовок : Disney
Язык : English
Default : Нет
Forced : Нет
Текст #8
Идентификатор : 14
Формат : UTF-8
Идентификатор кодека : S_TEXT/UTF8
Идентификатор кодека/Информация : UTF-8 Plain Text
Язык : English
Default : Нет
Forced : Нет
Меню
00:00:00.000 : en:(01)00:00:00:000
00:08:16.662 : en:(02)00:08:16:662
00:12:35.671 : en:(03)00:12:35:671
00:23:24.236 : en:(04)00:23:24:236
00:29:18.506 : en:(05)00:29:18:506
00:39:05.885 : en:(06)00:39:05:885
00:46:36.168 : en:(07)00:46:36:168
00:52:08.750 : en:(08)00:52:08:750
00:57:56.764 : en:(09)00:57:56:764
01:05:24.837 : en:(10)01:05:24:837
01:13:19.895 : en:(11)01:13:19:895
01:22:19.309 : en:(12)01:22:19:309
01:34:14.982 : en:(13)01:34:14:982




   Похожие торренты   Торрент   Размер 
В этой теме нет новых непрочитанных сообщений. Ариэтти из страны лилипутов / Добывайка Арриетти / The Borrower Arrietty / Kari-gurashi no Arietti (2010) DVDScr

36 | 28

1.37 ГБ

В этой теме нет новых непрочитанных сообщений. Охота на призраков / Ghost Hound / Shinrei Kari [TV] [01-22 из 22] (2007) BDRip 720p | L1

75 | 38

13.73 ГБ

В этой теме нет новых непрочитанных сообщений. Охота на призраков / Ghost Hound / Shinrei Kari [TV] [01-22 из 22] (2007) BDRip 720p | L1

5 | 18

15.45 ГБ

В этой теме нет новых непрочитанных сообщений. Волшебник страны Оз / The Wizard of Oz (1939) BDRip от HELLYWOOD

16 | 3

2.19 ГБ

В этой теме нет новых непрочитанных сообщений. Школьная жизнь! / Gakkou Gurashi! [TV] [01-02 из 12] (2015) WEBRip 720p | AniFilm

10 | 8

729.83 МБ

В этой теме нет новых непрочитанных сообщений. Школьная жизнь! / Gakkou Gurashi! [TV] [01-02 из 12] (2015) WEBRip 720p | AniFilm

11 | 6

3.21 ГБ

В этой теме нет новых непрочитанных сообщений. Школьная жизнь! / Gakkou Gurashi! [TV] [01-02 из 12] (2015) WEBRip 720p | AniFilm

23 | 5

1.43 ГБ




Вы не можете начинать темы
Вы не можете отвечать на сообщения
Вы не можете редактировать свои сообщения
Вы не можете удалять свои сообщения
Вы не можете добавлять вложения

Перейти:  
Для Мосгорсуда, Роскомнадзора и рекламодателей: mosgorsud-torrent[собачка]yandex.ru
 Вход
ppkBB3cker v.2 © 2008-2014 @ PPK
[ Time : 0.571s | 16 Queries | GZIP : On ]

Торрент трекер RUTOR.IN, Не можете зайти на rutor.org? Какой новый адрес рутор? Какое зеркало рутор? Не работает rutor.org и зеркала? Тогда наш торрент специально для вас. Rutor.in неофициальное зеркало rutor. В случае если у Вас заблокирован rutor или вдруг Вы не можете на него зайти, то Вы без труда сможете скачать бесплатно и без рекламы последние новинки кино, игр, сериалов и прочего у нас, на Rutor.in. Не нужно использовать прокси, чтобы зайти на рутор, достаточно воспользоваться нашим ресурсом. Все новые фильмы, игры, сериалы, книги и музыка за 2013 и 2014 годы через торрент бесплатно. Скачивайте фильмы в хорошем качестве, игры для пк, xbox, playstation без регистрации. У нас вы найдете новые Зарубежные сериалы и Русские сериалы 2013, 2014, 2015 годов. Оставайтесь с нами, качайте любимые фильмы, игры, сериалы, книги и музыку.