img image001 image001 image001 image001 image001 image001 image001 image001 image001 image001 image001 image001 image001 image001 image001

Planets Sun Sun Sun
Статистика раздачи
Автор: Nickolas3434 | Размер: 11.54 ГБ | Добавлен: 17 июн 2016
Раздают: 18    Качают: 12
Скачать торрент
Скачать торрент
Описание торрента

СообщениеДобавлено: 17 июн 2016 


Название: Школа Мертвецов
Оригинальное название: Gakuen Mokushiroku: High School of the Dead


Год выпуска: 2010
Страна: Япония
Жанр: Приключения, ужасы, этти
Продолжительность: 12х ~00:24:00 [TV]
Продолжительность: 00:16:10 [OVA]
Перевод: многоголосая [Open Team & Get Smart & Sam&Ko]
Субтитры: Русские


Режиссёр: Араки Тэцуро


Описание: Страшная болезнь, превращающая людей в зомби, вырвалась на свободу, и мир рухнул в одночасье. Беда неслышно подкралась и к частной академии Фудзими, лишь немногие школьники и учителя смогли распознать ее и бежать от толпы живых мертвецов. Дороги выживших разошлись. В центре сюжета – судьба тесной группы, невольный лидер которой, 17-летний Такаси Комуро, готов на все, чтобы спасти подругу детства Рэй Миямото. По пути на волю к ним присоединяются другие ученики – президент клуба кэндо Саэко Бусудзима, фанат оружия Кота Хирано и самозваный гений Сая Такаги. Пополнив ряды еще и школьной медсестрой Сидзукой Марикавой, беглецы вырываются в город – а там все только хуже.
Конец света быстро срывает маски, показывая, кто держится друзей, а кто готов толкнуть падающего; кто хочет просто выжить, а кто желает еще и половить рыбку в мутных водах Апокалипсиса. Такаси и компания вскоре убеждаются, что временами опаснее всего не зомби, а такие же «товарищи по несчастью». Героям придется пройти ускоренный курс суровой науки выживания, чтобы найти родных и близких и не потерять надежду. Надо жить дальше, а надежда будет всегда!


Качество: BDRip, 1080p, H.265
Формат: MKV
Видео кодек: x265
Аудио кодек: AC3
Видео: 1920x1080, 23,976 fps, HEVC, ~4200-6000 kbps
Аудио 1: Rus, 48 kHz/16-bit, AC3 2.0, ~192 kbps | Open Team & Get Smart & Sam&Ko
Аудио 2: Jpn, 48 kHz/16-bit, AC3 2.0, ~320 kbps | Original
Навигация по главам: Отсутствует


Автор рипа: Alex_A







world-art | aniDB | myanimelist


01. Spring of the Dead
02. Escape from the Dead
03. Democracy Under the Dead
04. Running in the Dead
05. Streets of the Dead
06. In the Dead of the Night
07. Dead Night and the Dead Ruck
08. The Dead Way Home
09. The Sword and Dead
10. The Dead`s House Rules
11. Dead Storm Rising
12. All Dead`s Attack
OVA. Drifters of the Dead


- H.265/HEVC (High Efficiency Video Coding) - это новый стандарт кодирования видео.
- Стандарт H.265/HEVC является логическим продолжением стандарта H.264/AVC (Advanced Video Coding), и характеризуется более эффективными алгоритмами сжатия, а также поддержкой высокого разрешения вплоть до 8K UHD (8192x4320). Первая версия стандарта H.265 была опубликована в начале 2013 года.
- Рипы в фомате HEVC, в настоящее время не поддерживается большинством аппаратных проигрывателей.
- Для корректного воспроизведения может потребоваться обновление ПО.
- Найти подходящий плеер можно по ссылке, или поищите на этом ресурсе.
- Владельцам несовместимого железа просьба не беспокоить, есть альтернативные релизы.

Общее
Уникальный идентификатор : 216662013093668733651499305884227006993 (0xA2FF95FC6AD1017991F216E92708F211)
Полное имя : e:HEVCHOTDHigh.School.of.the.Dead.S01E01.1080p_HEVCCLUB.mkv
Формат : Matroska
Версия формата : Version 4 / Version 2
Размер файла : 1,08 Гбайт
Продолжительность : 23 м.
Общий поток : 6550 Кбит/сек
Название фильма : H.O.T.D. [S01.E01] - Spring of the Dead - HEVC.CLUB
Дата кодирования : UTC 2016-06-08 16:46:24
Программа кодирования : mkvmerge v9.2.0 ('Photograph') 64bit
Библиотека кодирования : libebml v1.3.3 + libmatroska v1.4.4
Обложка : Yes
Attachments : cover.jpg
Видео
Идентификатор : 1
Формат : HEVC
Формат/Информация : High Efficiency Video Coding
Профиль формата : Main@L4.1@Main
Идентификатор кодека : V_MPEGH/ISO/HEVC
Продолжительность : 23 м.
Битрейт : 6048 Кбит/сек
Ширина : 1920 пикселей
Высота : 1080 пикселей
Соотношение сторон : 16:9
Режим частоты кадров : Переменный
Частота кадров : 23,976 кадра/сек
Цветовое пространство : YUV
Субдискретизация насыщенности : 4:2:0
Битовая глубина : 8 бит
Бит/(Пиксели*Кадры) : 0.122
Размер потока : 1024 Мбайт (92%)
Заголовок : HEVC.CLUB
Библиотека кодирования : x265 1.9+87-9915f21db1c2:[Windows][GCC 5.3.0][64 bit] 8bit
Настройки программы : wpp / ctu=64 / min-cu-size=8 / max-tu-size=32 / tu-intra-depth=1 / tu-inter-depth=1 / me=3 / subme=6 / merange=92 / no-rect / no-amp / max-merge=2 / temporal-mvp / no-early-skip / rdpenalty=0 / no-tskip / no-tskip-fast / strong-intra-smoothing / no-lossless / no-cu-lossless / no-constrained-intra / no-fast-intra / open-gop / no-temporal-layers / interlace=0 / keyint=230 / min-keyint=23 / scenecut=40 / rc-lookahead=60 / lookahead-slices=6 / bframes=8 / bframe-bias=0 / b-adapt=2 / ref=4 / limit-refs=3 / no-limit-modes / weightp / weightb / aq-mode=1 / qg-size=32 / aq-strength=1.00 / cbqpoffs=0 / crqpoffs=0 / rd=3 / psy-rd=2.00 / rdoq-level=0 / psy-rdoq=0.00 / no-rd-refine / signhide / deblock=-5:-5 / sao / no-sao-non-deblock / b-pyramid / cutree / no-intra-refresh / rc=crf / crf=16.0 / qcomp=0.60 / qpmin=0 / qpmax=51 / qpstep=4 / vbv-maxrate=20000 / vbv-bufsize=20000 / crf-max=17.0 / ipratio=1.40 / pbratio=1.30
Default : Да
Forced : Нет
Аудио #1
Идентификатор : 2
Формат : AC-3
Формат/Информация : Audio Coding 3
Расширение режима : CM (complete main)
Параметр Endianness формата : Big
Идентификатор кодека : A_AC3
Продолжительность : 23 м.
Вид битрейта : Постоянный
Битрейт : 192 Кбит/сек
Каналы : 2 канала
Расположение каналов : Front: L R
Частота : 48,0 КГц
Частота кадров : 31,250 кадров/сек (1536 spf)
Метод сжатия : С потерями
Размер потока : 32,5 Мбайт (3%)
Заголовок : Open Team & Get Smart & Sam&Ko
Язык : Russian
Default : Да
Forced : Нет
Аудио #2
Идентификатор : 3
Формат : AC-3
Формат/Информация : Audio Coding 3
Расширение режима : CM (complete main)
Параметр Endianness формата : Big
Идентификатор кодека : A_AC3
Продолжительность : 23 м.
Вид битрейта : Постоянный
Битрейт : 320 Кбит/сек
Каналы : 2 канала
Расположение каналов : Front: L R
Частота : 48,0 КГц
Частота кадров : 31,250 кадров/сек (1536 spf)
Метод сжатия : С потерями
Размер потока : 54,2 Мбайт (5%)
Заголовок : Original
Язык : Japanese
Default : Нет
Forced : Нет
Текст
Идентификатор : 4
Формат : ASS
Идентификатор кодека : S_TEXT/ASS
Идентификатор кодека/Информация : Advanced Sub Station Alpha
Продолжительность : 23 м.
Битрейт : 151 бит/сек
Count of elements : 358
Метод сжатия : Без потерь
Размер потока : 26,2 Кбайт (0%)
Язык : Russian
Default : Нет
Forced : Нет




   Похожие торренты   Торрент   Размер 
В этой теме нет новых непрочитанных сообщений. Школа Мертвецов / High School of the Dead [12 из 12 + OVA] (2010) BDRip HEVC 720p | Open Team

22 | 2

6.18 ГБ

В этой теме нет новых непрочитанных сообщений. Школа Мертвецов / High School of the Dead [01-12 из 12] (2010) BDRip | AniDub

18 | 2

2.84 ГБ

В этой теме нет новых непрочитанных сообщений. Высшая Школа Мертвецов / Gakuen Mokushiroku: High School of the Dead [s01x11] (2010) HDTVRip

5 | 2

382.31 МБ

В этой теме нет новых непрочитанных сообщений. Высшая Школа Мертвецов / Gakuen Mokushiroku: High School of the Dead [s01x05] (2010) HDTVRip от K1RgH0ff

0 | 2

549.74 МБ

В этой теме нет новых непрочитанных сообщений. Высшая Школа Мертвецов / Gakuen Mokushiroku: High School of the Dead [s01x04] (2010) HDTVRip от K1RgH0ff

0 | 2

572.79 МБ

В этой теме нет новых непрочитанных сообщений. Высшая Школа Мертвецов / Gakuen Mokushiroku: High School of the Dead [s01x03] (2010) HDTVRip от K1RgH0ff

0 | 2

565.69 МБ

В этой теме нет новых непрочитанных сообщений. Высшая Школа Мертвецов / Gakuen Mokushiroku: High School of the Dead [s01x09] (2010) HDTVRip от K1RgH0ff

0 | 3

407.38 МБ




Вы не можете начинать темы
Вы не можете отвечать на сообщения
Вы не можете редактировать свои сообщения
Вы не можете удалять свои сообщения
Вы не можете добавлять вложения

Перейти:  
Для Мосгорсуда, Роскомнадзора и рекламодателей: mosgorsud-torrent[собачка]yandex.ru
 Вход
ppkBB3cker v.2 © 2008-2014 @ PPK
[ Time : 0.511s | 13 Queries | GZIP : Off ]
CGP output time : 2.472s | 5 Queries | GZIP : Off

Торрент трекер RUTOR.IN, Не можете зайти на rutor.org? Какой новый адрес рутор? Какое зеркало рутор? Не работает rutor.org и зеркала? Тогда наш торрент специально для вас. Rutor.in неофициальное зеркало rutor. В случае если у Вас заблокирован rutor или вдруг Вы не можете на него зайти, то Вы без труда сможете скачать бесплатно и без рекламы последние новинки кино, игр, сериалов и прочего у нас, на Rutor.in. Не нужно использовать прокси, чтобы зайти на рутор, достаточно воспользоваться нашим ресурсом. Все новые фильмы, игры, сериалы, книги и музыка за 2013 и 2014 годы через торрент бесплатно. Скачивайте фильмы в хорошем качестве, игры для пк, xbox, playstation без регистрации. У нас вы найдете новые Зарубежные сериалы и Русские сериалы 2013, 2014, 2015 годов. Оставайтесь с нами, качайте любимые фильмы, игры, сериалы, книги и музыку.