img image001 image001 image001 image001 image001 image001 image001 image001 image001 image001 image001 image001 image001 image001 image001

Planets Sun Sun Sun
Статистика раздачи
Автор: Nickolas3434 | Размер: 364.39 МБ | Добавлен: 07 июл 2016, 15:39
Раздают: 17    Качают: 0
Скачать торрент
Скачать торрент
Описание торрента

СообщениеДобавлено: 07 июл 2016, 15:39 


Оригинальное название: Shokugeki no Souma: Ni no Sara
Русское название: Кулинарные поединки Сомы: Второе блюдо
Страна: Япония
Год выпуска:2016 г.
Жанр: Комедия, сёнен, этти, школа
Продолжительность: 13 эп., по ~24 мин.
Студия: J.C. STAFF
Озвучивание: Любительское (двухголосое): Kris & Aleister [R.E.C]
Перевод на русский: Holydarkness, MantisFL [LeDi-MaHo Team]
Описание:
Юкихира Сома мечтает стать штатным шеф-поваром в ресторане отца и превзойти своего родителя на профессиональном поприще. Он упорно идет навстречу мечте, но в тот момент, когда средняя школа остается позади, отец, Юкихира Джоичиро, закрывает свое заведение и отправляется на покорение Европы. Казалось бы, все планы рухнули, а стремления оказались напрасными, но Джоичиро, видя упавшего духом сына, предлагает ему пройти проверку на выносливость в элитнейшей школе кулинаров, только 10% учеников которой доживают до выпуска. Удастся ли это Соме?
Качество: WEBRip
Формат: mkv
Видео: 1280x720, h.264, 8 bit, 1 776 kbps, 23.810 fps
Аудио №1 RUS: AC-3, 192 kbps, 48.0 KHz, 2 ch
Аудио №2 JAP: AAC, 128 kbps, 44.1 KHz, 2 ch
Субтитры №1 RUS: ASS, в составе контейнера (надписи)
Субтитры №2 RUS: ASS. в отдельной папке (полные)
General
Unique ID : 220628312044384092181831861231530021446 (0xA5FB779F4EB62ABD8BC26832B2F81246)
Complete name : D:[R.E.C.] Shokugeki no Soum Ni no Sara (второй сезон)[R.E.C.] Shokugeki no Soma S2 - E01.mkv
Format : Matroska
Format version : Version 4 / Version 2
File size : 364 MiB
Duration : 24mn 20s
Overall bit rate : 2 093 Kbps
Encoded date : UTC 2016-07-04 03:33:48
Writing application : mkvmerge v8.4.0 ('A better way to fly') 32bit
Writing library : libebml v1.3.1 + libmatroska v1.4.2
Video
ID : 1
Format : AVC
Format/Info : Advanced Video Codec
Format profile : High@L4
Format settings, CABAC : Yes
Format settings, ReFrames : 6 frames
Codec ID : V_MPEG4/ISO/AVC
Duration : 24mn 20s
Bit rate : 1 776 Kbps
Width : 1 280 pixels
Height : 720 pixels
Display aspect ratio : 16:9
Frame rate mode : Variable
Frame rate : 23.976 (23976/1000) fps
Color space : YUV
Chroma subsampling : 4:2:0
Bit depth : 8 bits
Scan type : Progressive
Bits/(Pixel*Frame) : 0.080
Stream size : 308 MiB (85%)
Writing library : x264 core 120 r2120 0c7dab9
Encoding settings : cabac=1 / ref=6 / deblock=1:1:1 / analyse=0x3:0x113 / me=umh / subme=8 / psy=1 / psy_rd=0.40:0.00 / mixed_ref=1 / me_range=16 / chroma_me=1 / trellis=1 / 8x8dct=1 / cqm=0 / deadzone=21,11 / fast_pskip=1 / chroma_qp_offset=-2 / threads=4 / sliced_threads=0 / nr=0 / decimate=1 / interlaced=0 / bluray_compat=0 / constrained_intra=0 / bframes=3 / b_pyramid=2 / b_adapt=2 / b_bias=0 / direct=3 / weightb=1 / open_gop=0 / weightp=2 / keyint=250 / keyint_min=23 / scenecut=40 / intra_refresh=0 / rc_lookahead=50 / rc=2pass / mbtree=1 / bitrate=1776 / ratetol=1.0 / qcomp=0.60 / qpmin=0 / qpmax=69 / qpstep=4 / cplxblur=20.0 / qblur=0.5 / vbv_maxrate=3552 / vbv_bufsize=8880 / nal_hrd=none / ip_ratio=1.40 / aq=1:0.60
Default : Yes
Forced : No
Audio #1
ID : 2
Format : AC-3
Format/Info : Audio Coding 3
Mode extension : CM (complete main)
Format settings, Endianness : Big
Codec ID : A_AC3
Duration : 24mn 20s
Bit rate mode : Constant
Bit rate : 192 Kbps
Channel(s) : 2 channels
Channel positions : Front: L R
Sampling rate : 48.0 KHz
Frame rate : 31.250 fps (1536 spf)
Compression mode : Lossy
Stream size : 33.4 MiB (9%)
Title : [R.E.C.]
Language : Russian
Default : Yes
Forced : No
Audio #2
ID : 3
Format : AAC
Format/Info : Advanced Audio Codec
Format profile : LC
Codec ID : A_AAC
Duration : 24mn 20s
Bit rate : 128 Kbps
Channel(s) : 2 channels
Channel positions : Front: L R
Sampling rate : 44.1 KHz
Frame rate : 43.066 fps (1024 spf)
Compression mode : Lossy
Stream size : 22.3 MiB (6%)
Language : Japanese
Default : No
Forced : No
Text
ID : 4
Format : ASS
Codec ID : S_TEXT/ASS
Codec ID/Info : Advanced Sub Station Alpha
Duration : 24mn 18s
Bit rate : 25 bps
Count of elements : 41
Compression mode : Lossless
Stream size : 4.50 KiB (0%)
Title : [Надписи]
Language : Russian
Default : Yes
Forced : Yes





   Похожие торренты   Торрент   Размер 
В этой теме нет новых непрочитанных сообщений. Кулинарные поединки Сомы: Второе блюдо / Shokugeki no Souma: Ni no Sara [TV-2] [01 из 24] (2016) WEBRip 720p | AniPlay

0 | 0

588.02 МБ

В этой теме нет новых непрочитанных сообщений. Кулинарные поединки Сомы: Второе блюдо / Shokugeki no Souma: Ni no Sara [TV-2] [01-02 из 13] (2016) HDTVRip 720p | AniPlay

5 | 3

1.09 ГБ

В этой теме нет новых непрочитанных сообщений. Кулинарные поединки Сомы [ТВ-2] / Shokugeki no Souma: Ni no Sara [TV] [01 из 13] (2016) HDTVRip 720p | AniFilm

3 | 1

1.08 ГБ

В этой теме нет новых непрочитанных сообщений. Кулинарные поединки Сомы [ТВ-2] / Shokugeki no Souma: Ni no Sara [TV] [01 из 13] (2016) HDTVRip 720p | AniFilm

13 | 12

2.11 ГБ

В этой теме нет новых непрочитанных сообщений. Кулинарные поединки Сомы [ТВ-2] / Shokugeki no Souma: Ni no Sara [TV] [01 из 13] (2016) HDTVRip 720p | AniFilm

4 | 3

1.6 ГБ

В этой теме нет новых непрочитанных сообщений. Кулинарные поединки Сомы [ТВ-2] / Shokugeki no Souma: Ni no Sara [TV] [01 из 13] (2016) HDTVRip 720p | AniFilm

0 | 1

606.61 МБ

В этой теме нет новых непрочитанных сообщений. Кулинарные поединки Сомы [ТВ-2] / Shokugeki no Souma: Ni no Sara [TV] [01 из 13] (2016) HDTVRip 720p | AniFilm

26 | 7

2.57 ГБ




Вы не можете начинать темы
Вы не можете отвечать на сообщения
Вы не можете редактировать свои сообщения
Вы не можете удалять свои сообщения
Вы не можете добавлять вложения

Перейти:  
Для Мосгорсуда, Роскомнадзора и рекламодателей: mosgorsud-torrent[собачка]yandex.ru
Настройки
ppkBB3cker v.2 © 2008-2014 @ PPK
[ Time : 0.388s | 16 Queries | GZIP : Off ]
CGP [Extreme] output time : 0.00020s | 0 Queries | GZIP : Off

Торрент трекер RUTOR.IN, Не можете зайти на rutor.org? Какой новый адрес рутор? Какое зеркало рутор? Не работает rutor.org и зеркала? Тогда наш торрент специально для вас. Rutor.in неофициальное зеркало rutor. В случае если у Вас заблокирован rutor или вдруг Вы не можете на него зайти, то Вы без труда сможете скачать бесплатно и без рекламы последние новинки кино, игр, сериалов и прочего у нас, на Rutor.in. Не нужно использовать прокси, чтобы зайти на рутор, достаточно воспользоваться нашим ресурсом. Все новые фильмы, игры, сериалы, книги и музыка за 2013 и 2014 годы через торрент бесплатно. Скачивайте фильмы в хорошем качестве, игры для пк, xbox, playstation без регистрации. У нас вы найдете новые Зарубежные сериалы и Русские сериалы 2013, 2014, 2015 годов. Оставайтесь с нами, качайте любимые фильмы, игры, сериалы, книги и музыку.