img image001 image001 image001 image001 image001 image001 image001 image001 image001 image001 image001 image001 image001 image001 image001

Planets Sun Sun Sun
Статистика раздачи
Автор: Nickolas3434 | Размер: 1.5 ГБ | Добавлен: 08 июл 2016
Раздают: 32    Качают: 2
Скачать торрент
Скачать торрент
Описание торрента

СообщениеДобавлено: 08 июл 2016 


Страна: Япония
Год выпуска: 2015 г.
Жанр: приключения, комедия, фэнтези
Тип: Special
Продолжительность: ТВ-спэшл 106 мин.
Режиссер: Уда Коносукэ
Описание:
Капитану пиратов Фокси, когда-то потерпевшему от Луффи и его команды сокрушительное поражение в боях Дэйви Блэка, уже давно не терпелось устроить матч-реванш. Оно и понятно: Луффи не только прервал его длительную череду побед, но и отобрал милого сердцу Веселого Роджера, взамен которого нарисовал совершенно нелепый флаг. По вине Мугивар Фокси превратился в посмешище! К счастью, скоро его страданиям придет конец: пополнив команду за счет нескольких весьма талантливых личностей, Фокси обновил корабль и разработал коварный план по заманиванию Мугивар на остров, где они будут вынуждены согласиться на матч-реванш.
Началось все просто замечательно: Мугивары клюнули на приманку, а их капитан не стал увиливать от нового состязания, несмотря на протесты вконец перепуганного Чоппера. Новая игра, проводимая в условиях обильных возлияний и гор свежеприготовленной еды, даже обещала стать неплохим времяпрепровождением для обеих команд. Фокси не учел только одного: его желание свести счеты с Луффи сыграло на руку коварному врагу всех пиратов в мире. И если Мугивары не объединят силы с недавними врагами и не проявят изобретательность, эта переделка очень скоро превратится в стремительный закат их блистательных приключений. ©
Доп. информация:
Релиз GSGroup

Качество: HDTVRip
Тип релиза: Без хардсаба
Формат видео: AVI
Совместимость с бытовыми плеерами: Да
Видео: 720x400 XviD 23.976 fps 1 624 Kbps 8 bits
Аудио: AC-3 48.0 KHz 2 channels 192 Kbps Язык Русский (в составе контейнера) ; Озвучка: женская одноголосая: Persona99
Аудио 2: AC-3 48.0 KHz 2 channels 192 Kbps Язык Японский
Субтитры: ass, srt, внешние Язык субтитров русский ; Перевод: One Piece ru
Код:
General
Complete name                            : One Piece - Adventure of NebulandiaOne Piece - Adventure of Nebulandia SP [Persona99].avi
Format                                   : AVI
Format/Info                              : Audio Video Interleave
File size                                : 1.50 GiB
Duration                                 : 1h 46mn
Overall bit rate                         : 2 022 Kbps
Writing application                      : VirtualDubMod 1.5.10.2 (build 2540/release)
Writing library                          : VirtualDubMod build 2540/release
Video
ID                                       : 0
Format                                   : MPEG-4 Visual
Format profile                           : Advanced Simple@L5
Format settings, BVOP                    : 2
Format settings, QPel                    : No
Format settings, GMC                     : No warppoints
Format settings, Matrix                  : Default (H.263)
Codec ID                                 : XVID
Codec ID/Hint                            : XviD
Duration                                 : 1h 46mn
Bit rate                                 : 1 624 Kbps
Width                                    : 720 pixels
Height                                   : 400 pixels
Display aspect ratio                     : 16:9
Frame rate                               : 23.976 fps
Color space                              : YUV
Chroma subsampling                       : 4:2:0
Bit depth                                : 8 bits
Scan type                                : Progressive
Compression mode                         : Lossy
Bits/(Pixel*Frame)                       : 0.235
Stream size                              : 1.21 GiB (80%)
Writing library                          : XviD 67
Audio #1
ID                                       : 1
Format                                   : AC-3
Format/Info                              : Audio Coding 3
Mode extension                           : CM (complete main)
Format settings, Endianness              : Big
Codec ID                                 : 2000
Duration                                 : 1h 46mn
Bit rate mode                            : Constant
Bit rate                                 : 192 Kbps
Channel(s)                               : 2 channels
Channel positions                        : Front: L R
Sampling rate                            : 48.0 KHz
Compression mode                         : Lossy
Stream size                              : 146 MiB (9%)
Alignment                                : Split accross interleaves
Interleave, duration                     : 42 ms (1.00 video frame)
Interleave, preload duration             : 500 ms
Audio #2
ID                                       : 2
Format                                   : AC-3
Format/Info                              : Audio Coding 3
Mode extension                           : CM (complete main)
Format settings, Endianness              : Big
Codec ID                                 : 2000
Duration                                 : 1h 46mn
Bit rate mode                            : Constant
Bit rate                                 : 192 Kbps
Channel(s)                               : 2 channels
Channel positions                        : Front: L R
Sampling rate                            : 48.0 KHz
Compression mode                         : Lossy
Stream size                              : 146 MiB (9%)
Alignment                                : Split accross interleaves
Interleave, duration                     : 42 ms (1.00 video frame)
Interleave, preload duration             : 500 ms
 


Семпл: https://yadi.sk/i/ZdPQGi2Ft2jwv



   Похожие торренты   Торрент   Размер 
В этой теме нет новых непрочитанных сообщений. Ван Пис: Остров Мечты / One Piece Film Z Special: Glorious Island [Special] [1 из 1] (2012) HDRip | Persona99

11 | 3

151.07 МБ

В этой теме нет новых непрочитанных сообщений. One Piece: Grand Adventure (2006) PS2

205 | 6

746.9 МБ

В этой теме нет новых непрочитанных сообщений. Ван Пис / One Piece (Уда Коносукэ) [TV] [490-726 из xxx] [RAW] [RUS+JAP] [2012-2016, приключения, комедия, фэнтези, сёнэн, HDTVRip] [720p] / Ван-Пис

0 | 75

93.44 ГБ

В этой теме нет новых непрочитанных сообщений. Kelly Clarkson - Piece By Piece [Deluxe Edition](2015) FLAC

36 | 17

447.95 МБ

В этой теме нет новых непрочитанных сообщений. Ван Пис: Золотое Сердце / One piece: Heart of Gold [Special]

84 | 16

2.23 ГБ

В этой теме нет новых непрочитанных сообщений. Полярные приключения / Polar Adventure (2015) WEBRip | звук с TS

147 | 13

1.37 ГБ

В этой теме нет новых непрочитанных сообщений. Невероятные приключения Джоджо 4 / JoJo Bizarre Adventure: Diamond is Unbreakable [TV] [01-09] (2016) HDTVRip 720 | Persona99

1 | 0

5.77 ГБ




Вы не можете начинать темы
Вы не можете отвечать на сообщения
Вы не можете редактировать свои сообщения
Вы не можете удалять свои сообщения
Вы не можете добавлять вложения

Перейти:  
Для Мосгорсуда, Роскомнадзора и рекламодателей: mosgorsud-torrent[собачка]yandex.ru
 Вход
ppkBB3cker v.2 © 2008-2014 @ PPK
[ Time : 0.235s | 14 Queries | GZIP : Off ]

Торрент трекер RUTOR.IN, Не можете зайти на rutor.org? Какой новый адрес рутор? Какое зеркало рутор? Не работает rutor.org и зеркала? Тогда наш торрент специально для вас. Rutor.in неофициальное зеркало rutor. В случае если у Вас заблокирован rutor или вдруг Вы не можете на него зайти, то Вы без труда сможете скачать бесплатно и без рекламы последние новинки кино, игр, сериалов и прочего у нас, на Rutor.in. Не нужно использовать прокси, чтобы зайти на рутор, достаточно воспользоваться нашим ресурсом. Все новые фильмы, игры, сериалы, книги и музыка за 2013 и 2014 годы через торрент бесплатно. Скачивайте фильмы в хорошем качестве, игры для пк, xbox, playstation без регистрации. У нас вы найдете новые Зарубежные сериалы и Русские сериалы 2013, 2014, 2015 годов. Оставайтесь с нами, качайте любимые фильмы, игры, сериалы, книги и музыку.