img image001 image001 image001 image001 image001 image001 image001 image001 image001 image001 image001 image001 image001 image001 image001

Planets Sun Sun Sun
Статистика раздачи
Автор: Nickolas3434 | Размер: 4.23 ГБ | Добавлен: 12 июл 2016
Раздают: 191    Качают: 23
Скачать торрент
Скачать торрент
Описание торрента

СообщениеДобавлено: 12 июл 2016 


Информация о фильме
Название: Сотня
Оригинальное название: Hundred
Год выхода: 2016
Жанр: фантастика, этти, меха, романтика, школа, гарем
Режиссер: Кобаяси Томоки
Художник: Сайто Юкихиро, Кудо Юми
В ролях: Хасэгава Ёсиаки, Окубо Руми, Ёсиока Маю, Окуно Кая, Итимити Мао, Хатано Ватару, Оцубо Юка
О фильме:
Однажды на Землю прилетают неизвестные формы жизни, которые называются "Дикари".
Главный герой сериала, Хаято Кисараги, который стремится достичь своей цели, стать "мастером боевых искусств", чтобы получить специальное оружие "Сотню", способное противостоять этим пришельцам. Он поступает в военно-морскую академию "Маленький сад". Как только церемония поступления заканчивается, его сразу же вызывают на дуэль. Причем вызывает не просто кто-то, а президент студсовета "Маленького сада" Клэр Харви, которая в свою очередь является сильнейшим мастером боевых искусств. Именно с этой встречи начинается его путь к становлению мастером.
World Art | MAL
Страна: Япония
Студия: Production IMS
Продолжительность: 00:24:00
Язык: Русский, Японский
Перевод: Любительский (многоголосый, закадровый)
Файл
Качество: WEBRip
Формат: MKV
Кодек: H.264
Аудио кодек: AAC
Видео: 1280x720, 23.976 fps, 2000 kbps
Аудио RUS: 48.0 kHz, AAC, 2 ch, 192 kbps - AniDub
Аудио JAP: 48.0 kHz, AAC, 2 ch, 128 kbps
Субтитры: русские (встроенные полный перевод, ASS) - AOS Team
Релиз от:
Озвучивание: Ancord, Jade, Oriko
Перевод: Jeka

01. Малый Сад
02. Невидимая королева
03. Пробуждение вида
04. Телохранитель
05. Девушка-имитация
06. Песня дивы о любви
07. Принцесса Дикой Розы
08. Ночь на озере
09. Драконий тип
10. Школьный фестиваль
11. Садовый кризис
12. Друзья
General
Format : Matroska
Format version : Version 4 / Version 2
File size : 360 MiB
Duration : 24mn 6s
Overall bit rate : 2 090 Kbps
Encoded date : UTC 2016-07-09 12:30:24
Writing application : mkvmerge v8.3.0 ('Over the Horizon') 64bit
Writing library : libebml v1.3.1 + libmatroska v1.4.2
Attachments : OpenSans-Semibold.ttf
Video
ID : 1
Format : AVC
Format/Info : Advanced Video Codec
Format profile : High@L4
Format settings, CABAC : Yes
Format settings, ReFrames : 6 frames
Codec ID : V_MPEG4/ISO/AVC
Duration : 24mn 5s
Bit rate : 1 776 Kbps
Width : 1 280 pixels
Height : 720 pixels
Display aspect ratio : 16:9
Frame rate mode : Constant
Frame rate : 23.976 (24000/1001) fps
Original frame rate : 23.976 (23976/1000) fps
Color space : YUV
Chroma subsampling : 4:2:0
Bit depth : 8 bits
Scan type : Progressive
Bits/(Pixel*Frame) : 0.080
Stream size : 304 MiB (84%)
Writing library : x264 core 120 r2120 0c7dab9
Encoding settings : cabac=1 / ref=6 / deblock=1:1:1 / analyse=0x3:0x113 / me=umh / subme=8 / psy=1 / psy_rd=0.40:0.00 / mixed_ref=1 / me_range=16 / chroma_me=1 / trellis=1 / 8x8dct=1 / cqm=0 / deadzone=21,11 / fast_pskip=1 / chroma_qp_offset=-2 / threads=4 / sliced_threads=0 / nr=0 / decimate=1 / interlaced=0 / bluray_compat=0 / constrained_intra=0 / bframes=3 / b_pyramid=2 / b_adapt=2 / b_bias=0 / direct=3 / weightb=1 / open_gop=0 / weightp=2 / keyint=250 / keyint_min=23 / scenecut=40 / intra_refresh=0 / rc_lookahead=50 / rc=2pass / mbtree=1 / bitrate=1776 / ratetol=1.0 / qcomp=0.60 / qpmin=0 / qpmax=69 / qpstep=4 / cplxblur=20.0 / qblur=0.5 / vbv_maxrate=3552 / vbv_bufsize=8880 / nal_hrd=none / ip_ratio=1.40 / aq=1:0.60
Default : Yes
Forced : No
Audio #1
ID : 2
Format : AAC
Format/Info : Advanced Audio Codec
Format profile : LC
Codec ID : A_AAC
Duration : 24mn 5s
Bit rate : 192 Kbps
Channel(s) : 2 channels
Channel positions : Front: L R
Sampling rate : 48.0 KHz
Frame rate : 46.875 fps (1024 spf)
Compression mode : Lossy
Stream size : 33.1 MiB (9%)
Title : AniDub
Language : Russian
Default : Yes
Forced : No
Audio #2
ID : 3
Format : AAC
Format/Info : Advanced Audio Codec
Format profile : LC
Codec ID : A_AAC
Duration : 24mn 6s
Bit rate : 128 Kbps
Channel(s) : 2 channels
Channel positions : Front: L R
Sampling rate : 44.1 KHz
Frame rate : 43.066 fps (1024 spf)
Compression mode : Lossy
Stream size : 22.1 MiB (6%)
Title : Original
Language : Japanese
Default : No
Forced : No
Text
ID : 4
Format : ASS
Codec ID : S_TEXT/ASS
Codec ID/Info : Advanced Sub Station Alpha
Duration : 23mn 54s
Bit rate : 144 bps
Count of elements : 354
Compression mode : Lossless
Stream size : 25.3 KiB (0%)
Title : Полные субтитры
Language : Russian
Default : Yes
Forced : No



   Похожие торренты   Торрент   Размер 
В этой теме нет новых непрочитанных сообщений. Сотня / 100 / The Hundred [03х01 из 16] (2016) WEB-DLRip | LostFilm

207 | 5

500.54 МБ

В этой теме нет новых непрочитанных сообщений. Сотня / 100 / The 100 / The Hundred [S01] (2014) WEB-DLRip 720p | LostFilm

369 | 274

18.47 ГБ

В этой теме нет новых непрочитанных сообщений. Сотня / 100 / The 100 / The Hundred [01x01-02 из 13] (2014) WEB-DLRip 720p | LostFilm

147 | 138

2.83 ГБ

В этой теме нет новых непрочитанных сообщений. Сотня / 100 / The 100 / The Hundred [01x01-05 из 13] (2014) WEB-DLRip 720p | LostFilm

48 | 71

7.04 ГБ

В этой теме нет новых непрочитанных сообщений. Сотня / The 100 / The Hundred [02x01-15 из 16] (2014) HDTV 720p | ColdFilm

34 | 296

15.43 ГБ

В этой теме нет новых непрочитанных сообщений. Сотня / The 100 / The Hundred [02x01-04] (2014) HDTV 720p | ColdFilm

48 | 114

4.15 ГБ

В этой теме нет новых непрочитанных сообщений. Сотня / The 100 / The Hundred [01x01-09] (2014) HDTV 720p | Kerob

7 | 42

9.12 ГБ




Вы не можете начинать темы
Вы не можете отвечать на сообщения
Вы не можете редактировать свои сообщения
Вы не можете удалять свои сообщения
Вы не можете добавлять вложения

Перейти:  
Для Мосгорсуда, Роскомнадзора и рекламодателей: mosgorsud-torrent[собачка]yandex.ru
 Вход
ppkBB3cker v.2 © 2008-2014 @ PPK
[ Time : 0.049s | 17 Queries | GZIP : Off ]

cron