img image001 image001 image001 image001 image001 image001 image001 image001 image001 image001 image001 image001 image001 image001 image001

Planets Sun Sun Sun
Статистика раздачи
Автор: Nickolas3434 | Размер: 4.53 ГБ | Добавлен: 21 июл 2016
Раздают: 32    Качают: 8
Скачать торрент
Скачать торрент
Описание торрента

СообщениеДобавлено: 21 июл 2016 


Информация о фильме
Название: Рёв!!
Оригинальное название: Bakuon!!
Год выхода: 2016
Жанр: школа, спорт, повседневность, комедия
Режиссер: Нисимура Дзюндзи
Художник: Ёсихара Сюнъитиро, Аоки Каору
В ролях: Уэда Рэйна, Тояма Нао, Утияма Юми, Ямагути Рикако, Кидо Ибуки
О фильме:
Однажды по пути в школу Ханэ Сакура — немного болванистая старшеклассница — решает сократить себе путь, да подняться в гору с велосипедом. С трудом преодолевая ненавистные метры дороги и проклиная свою идею, Ханэ вдруг замечает, как мимо нее с легкостью и грацией проезжает девушка на мотоцикле. Любовь с первого взгляда — не иначе... К мотоциклу, конечно. С этих пор девушка полностью погружается в мир ревущих двигателей и решает немедленно вступить в мотоциклетный клуб своей школы, куда, помимо нее, вступает и та самая девушка на мотоцикле — Онса Амано — которая оказывается ее одноклассницей. Теперь цель, к которой стремительно направляется Ханэ — это получить права.
World Art | MAL
Страна: Япония
Студия: Production IMS
Продолжительность: 00:23:42
Язык: Русский, Японский
Перевод: Любительский (многоголосый, закадровый)
Файл
Качество: WEBRip
Формат: MKV
Кодек: H.264
Аудио кодек: AAC
Видео: 1280x720, 23.976 fps, 1800 kbps
Аудио RUS: 48.0 kHz, AAC, 2 ch, 192 kbps - AniDub
Аудио JAP: 48.0 kHz, AAC, 2 ch, 128 kbps
Субтитры: русские (встроенные полный перевод, ASS) - Elven_tankman
Релиз от:
Озвучивание: Ancord, Jade, Kiara_Laine
Перевод: Светлана Столыпина, Elven_tankman
Тайминг и работа со звуком: Noah

01. Вступление в клуб!!
02. Школа!!
03. Дебют!!
04. Горячие источники!!
05. Поездка!!
06. Подготовка!!
07. Фестиваль!!
08. Летние Каникулы!!
09. Новенькие!!
10. Младшие!!
11. Велосипеды!!
12. Другой Мир!!
General
Format : Matroska
Format version : Version 4 / Version 2
File size : 355 MiB
Duration : 23mn 42s
Overall bit rate : 2 093 Kbps
Encoded date : UTC 2016-07-10 10:54:37
Writing application : mkvmerge v8.3.0 ('Over the Horizon') 64bit
Writing library : libebml v1.3.1 + libmatroska v1.4.2
Attachments : OpenSans-Semibold.ttf
Video
ID : 1
Format : AVC
Format/Info : Advanced Video Codec
Format profile : High@L4
Format settings, CABAC : Yes
Format settings, ReFrames : 6 frames
Codec ID : V_MPEG4/ISO/AVC
Duration : 23mn 42s
Bit rate : 1 776 Kbps
Width : 1 280 pixels
Height : 720 pixels
Display aspect ratio : 16:9
Frame rate mode : Constant
Frame rate : 23.976 (24000/1001) fps
Original frame rate : 23.976 (23976/1000) fps
Color space : YUV
Chroma subsampling : 4:2:0
Bit depth : 8 bits
Scan type : Progressive
Bits/(Pixel*Frame) : 0.080
Stream size : 300 MiB (84%)
Writing library : x264 core 120 r2120 0c7dab9
Encoding settings : cabac=1 / ref=6 / deblock=1:1:1 / analyse=0x3:0x113 / me=umh / subme=8 / psy=1 / psy_rd=0.40:0.00 / mixed_ref=1 / me_range=16 / chroma_me=1 / trellis=1 / 8x8dct=1 / cqm=0 / deadzone=21,11 / fast_pskip=1 / chroma_qp_offset=-2 / threads=4 / sliced_threads=0 / nr=0 / decimate=1 / interlaced=0 / bluray_compat=0 / constrained_intra=0 / bframes=3 / b_pyramid=2 / b_adapt=2 / b_bias=0 / direct=3 / weightb=1 / open_gop=0 / weightp=2 / keyint=250 / keyint_min=23 / scenecut=40 / intra_refresh=0 / rc_lookahead=50 / rc=2pass / mbtree=1 / bitrate=1776 / ratetol=1.0 / qcomp=0.60 / qpmin=0 / qpmax=69 / qpstep=4 / cplxblur=20.0 / qblur=0.5 / vbv_maxrate=3552 / vbv_bufsize=8880 / nal_hrd=none / ip_ratio=1.40 / aq=1:0.60
Default : Yes
Forced : No
Audio #1
ID : 2
Format : AAC
Format/Info : Advanced Audio Codec
Format profile : LC
Codec ID : A_AAC
Duration : 23mn 41s
Bit rate : 192 Kbps
Channel(s) : 2 channels
Channel positions : Front: L R
Sampling rate : 48.0 KHz
Frame rate : 46.875 fps (1024 spf)
Compression mode : Lossy
Stream size : 32.6 MiB (9%)
Title : AniDub
Language : Russian
Default : Yes
Forced : No
Audio #2
ID : 3
Format : AAC
Format/Info : Advanced Audio Codec
Format profile : LC
Codec ID : A_AAC
Duration : 23mn 42s
Bit rate : 128 Kbps
Channel(s) : 2 channels
Channel positions : Front: L R
Sampling rate : 44.1 KHz
Frame rate : 43.066 fps (1024 spf)
Compression mode : Lossy
Stream size : 21.7 MiB (6%)
Title : Original
Language : Japanese
Default : No
Forced : No
Text
ID : 4
Format : ASS
Codec ID : S_TEXT/ASS
Codec ID/Info : Advanced Sub Station Alpha
Duration : 23mn 32s
Bit rate : 155 bps
Count of elements : 363
Compression mode : Lossless
Stream size : 26.9 KiB (0%)
Title : Полные субтитры
Language : Russian
Default : Yes
Forced : No
General
Format : Matroska
Format version : Version 4 / Version 2
File size : 378 MiB
Duration : 23mn 45s
Overall bit rate : 2 223 Kbps
Movie name : Bakuon OVA
Encoded date : UTC 2016-07-21 10:19:48
Writing application : mkvmerge v8.3.0 ('Over the Horizon') 64bit
Writing library : libebml v1.3.1 + libmatroska v1.4.2
Attachments : Bangers_0.ttf / NotoSans-Bold_0.ttf / NotoSans-BoldItalic_0.ttf / NotoSans-Italic_0.ttf / NotoSans-Regular_0.ttf / NotoSerif-Bold_0.ttf / NotoSerif-BoldItalic_0.ttf / NotoSerif-Italic_0.ttf / NotoSerif-Regular_0.ttf / OpenSans-Bold_0.ttf / OpenSans-BoldItalic_0.ttf / OpenSans-ExtraBold_0.ttf / OpenSans-ExtraBoldItalic_0.ttf / OpenSans-Italic_0.ttf / OpenSans-Light_0.ttf / OpenSans-LightItalic_0.ttf / OpenSans-Regular_0.ttf / OpenSans-Semibold_0.ttf / OpenSans-SemiboldItalic_0.ttf / KTEGAKI_0.ttf / NotoSans-Bold_0.ttf / NotoSans-BoldItalic_0.ttf
Video
ID : 1
Format : AVC
Format/Info : Advanced Video Codec
Format profile : High@L4.1
Format settings, CABAC : Yes
Format settings, ReFrames : 8 frames
Codec ID : V_MPEG4/ISO/AVC
Duration : 23mn 45s
Bit rate : 1 765 Kbps
Width : 1 024 pixels
Height : 576 pixels
Display aspect ratio : 16:9
Frame rate mode : Constant
Frame rate : 23.976 (24000/1001) fps
Color space : YUV
Chroma subsampling : 4:2:0
Bit depth : 8 bits
Scan type : Progressive
Bits/(Pixel*Frame) : 0.125
Stream size : 300 MiB (79%)
Writing library : x264 core 142 r2479 dd79a61
Encoding settings : cabac=1 / ref=8 / deblock=1:-2:-2 / analyse=0x3:0x133 / me=umh / subme=9 / psy=1 / psy_rd=1.00:0.25 / mixed_ref=1 / me_range=16 / chroma_me=1 / trellis=2 / 8x8dct=1 / cqm=0 / deadzone=6,6 / fast_pskip=1 / chroma_qp_offset=-4 / threads=12 / lookahead_threads=1 / sliced_threads=0 / nr=0 / decimate=0 / interlaced=0 / bluray_compat=0 / constrained_intra=0 / bframes=3 / b_pyramid=2 / b_adapt=2 / b_bias=0 / direct=3 / weightb=1 / open_gop=0 / weightp=2 / keyint=240 / keyint_min=24 / scenecut=40 / intra_refresh=0 / rc_lookahead=60 / rc=crf / mbtree=1 / crf=15.0 / qcomp=0.80 / qpmin=0 / qpmax=69 / qpstep=4 / vbv_maxrate=62500 / vbv_bufsize=78125 / crf_max=0.0 / nal_hrd=none / filler=0 / ip_ratio=1.10 / aq=1:0.50
Default : Yes
Forced : No
Color range : Limited
Color primaries : BT.709
Transfer characteristics : BT.709
Matrix coefficients : BT.709
Audio #1
ID : 2
Format : AAC
Format/Info : Advanced Audio Codec
Format profile : LC
Codec ID : A_AAC
Duration : 23mn 45s
Bit rate : 192 Kbps
Channel(s) : 2 channels
Channel positions : Front: L R
Sampling rate : 48.0 KHz
Frame rate : 46.875 fps (1024 spf)
Compression mode : Lossy
Stream size : 32.6 MiB (9%)
Title : AniDub
Language : Russian
Default : Yes
Forced : No
Audio #2
ID : 3
Format : AC-3
Format/Info : Audio Coding 3
Mode extension : CM (complete main)
Format settings, Endianness : Big
Codec ID : A_AC3
Duration : 23mn 45s
Bit rate mode : Constant
Bit rate : 224 Kbps
Channel(s) : 2 channels
Channel positions : Front: L R
Sampling rate : 48.0 KHz
Frame rate : 31.250 fps (1536 spf)
Compression mode : Lossy
Stream size : 38.1 MiB (10%)
Title : Original
Language : Japanese
Default : No
Forced : Yes
Text
ID : 4
Format : ASS
Codec ID : S_TEXT/ASS
Codec ID/Info : Advanced Sub Station Alpha
Duration : 23mn 17s
Bit rate : 121 bps
Count of elements : 310
Compression mode : Lossless
Stream size : 20.8 KiB (0%)
Title : Полные субтитры
Language : Russian
Default : Yes
Forced : No



   Похожие торренты   Торрент   Размер 
В этой теме нет новых непрочитанных сообщений. Сотня / Hundred [S01] (2016) WEBRip 720p | AniDub

328 | 34

4.23 ГБ

В этой теме нет новых непрочитанных сообщений. Черные метки / Schwarzesmarken [01-12 из 12] (2016) WEBRip 720p | AniDub

65 | 10

4.16 ГБ

В этой теме нет новых непрочитанных сообщений. Черные метки / Schwarzesmarken [01-07 из 12] (2016) WEBRip 720p | AniDub

87 | 12

2.41 ГБ

В этой теме нет новых непрочитанных сообщений. Черные метки / Schwarzesmarken [01-06 из 12] (2016) WEBRip 720p | AniDub

24 | 7

2.1 ГБ

В этой теме нет новых непрочитанных сообщений. Черные метки / Schwarzesmarken [01-05 из 12] (2016) WEBRip 720p | AniDub

45 | 7

1.75 ГБ

В этой теме нет новых непрочитанных сообщений. Черные метки / Schwarzesmarken [01-08 из 12] (2016) WEBRip 720p | AniDub

11 | 3

2.76 ГБ

В этой теме нет новых непрочитанных сообщений. Черные метки / Schwarzesmarken [01-04 из 12] (2016) WEBRip 720p | AniDub

20 | 20

1.4 ГБ




Вы не можете начинать темы
Вы не можете отвечать на сообщения
Вы не можете редактировать свои сообщения
Вы не можете удалять свои сообщения
Вы не можете добавлять вложения

Перейти:  
Для Мосгорсуда, Роскомнадзора и рекламодателей: mosgorsud-torrent[собачка]yandex.ru
 Вход
ppkBB3cker v.2 © 2008-2014 @ PPK
[ Time : 0.510s | 16 Queries | GZIP : Off ]

Торрент трекер RUTOR.IN, Не можете зайти на rutor.org? Какой новый адрес рутор? Какое зеркало рутор? Не работает rutor.org и зеркала? Тогда наш торрент специально для вас. Rutor.in неофициальное зеркало rutor. В случае если у Вас заблокирован rutor или вдруг Вы не можете на него зайти, то Вы без труда сможете скачать бесплатно и без рекламы последние новинки кино, игр, сериалов и прочего у нас, на Rutor.in. Не нужно использовать прокси, чтобы зайти на рутор, достаточно воспользоваться нашим ресурсом. Все новые фильмы, игры, сериалы, книги и музыка за 2013 и 2014 годы через торрент бесплатно. Скачивайте фильмы в хорошем качестве, игры для пк, xbox, playstation без регистрации. У нас вы найдете новые Зарубежные сериалы и Русские сериалы 2013, 2014, 2015 годов. Оставайтесь с нами, качайте любимые фильмы, игры, сериалы, книги и музыку.