img image001 image001 image001 image001 image001 image001 image001 image001 image001 image001 image001 image001 image001 image001 image001

Planets Sun Sun Sun
Статистика раздачи
Автор: Nickolas3434 | Размер: 2.51 ГБ | Добавлен: 22 июл 2016
Раздают: 21    Качают: 3
Скачать торрент
Скачать торрент
Описание торрента

СообщениеДобавлено: 22 июл 2016 


Информация о фильме
Название: Грязная Парочка: Проект Эдем
Оригинальное название: Dirty Pair Project Eden
Год выхода: 1987
Жанр: приключения, комедия, этти, фантастика
Режиссер: Масимо Койти
Художник: Миямаэ Мицухару
В ролях: Симадзу Саэко, Тонгу Кёко, Мори Кацудзи, Оцука Тикао, Нисио Току, Макисима Наоки, Кобаяси Осаму, Тэрасима Микио, Иидзука Сёдзо, Саваки Икуя, Косуги Дзюрота, Комия Кадзуэ, Икэмото Саюри, Сима Сюнсукэ, Хаси Такая, Фудзии Каёко
О фильме:
Две симпатяшки девушки Юри и Кей стали специалистами по неприятностям и работают ОООБ - Организация Обеспечения Общественного Благополучия. Они с непередаваемой грацией и напором расстреливают врагов всего доброго и хорошего. Просто приятно смотреть, как умирают всякие монстры и отъявленные бандиты.
Юри и Кей постоянно получают задания, с которыми остальные бы не справились, и успешно их выполняют. Правда есть одно но, задания они выполняют. только какой ценой? После одного их заданий, в очень неприятной ситуации оказалась целая планета, т.е. жить там стало невозможно.
Наверное, после каждого задания их шеф Гулей должен был седеть на всю голову. Поэтому он и обращается с ними немного грубовато. У Грязной парочки есть и свой зверек Муги - что-то похожее на белку, но размером с медведя. Муги очень умный зверь и постоянно помогает девушкам на их заданиях.

World Art | MAL
Страна: Япония
Студия: Sunrise
Продолжительность: 01:21:09
Язык: Русский, Японский
Перевод: Любительский (двухголосый, закадровый)
Файл
Качество: DVDRip-AVC
Формат: MKV
Видео кодек: H.264 [Hi10p]
Аудио кодек: AAC, AC3
Видео: 656x480, 23.976 fps, 3841 kbps
Аудио RUS: 48.0 kHz, AAC, 2 ch, 192 kbps
Аудио JAP: 48.0 kHz, AC3, 2 ch, 384 kbps
Субтитры: русские (встроенные полный перевод, ASS) - RoRay
Релиз от:
Озвучивание: Azazel, Oni
Перевод: RoRay
Тайминг и работа со звуком: BlackBoo, Flam

General
Format : Matroska
Format version : Version 4 / Version 2
File size : 2.51 GiB
Duration : 1h 21mn
Overall bit rate : 4 420 Kbps
Movie name : Dirty Pair the Movie (1987) [OnDeed]
Encoded date : UTC 2016-07-22 12:22:27
Writing application : mkvmerge v8.3.0 ('Over the Horizon') 64bit
Writing library : libebml v1.3.1 + libmatroska v1.4.2
Attachments : GillSansMTPro-Medium.otf / GillSansMTPro-MediumItalic.otf / FuturaStd-MediumOblique.otf / FuturaStd-Medium.otf
Video
ID : 1
Format : AVC
Format/Info : Advanced Video Codec
Format profile : High 10@L3.2
Format settings, CABAC : Yes
Format settings, ReFrames : 16 frames
Codec ID : V_MPEG4/ISO/AVC
Duration : 1h 21mn
Bit rate : 3 841 Kbps
Width : 656 pixels
Height : 480 pixels
Display aspect ratio : 5:3
Original display aspect rat : 5:3
Frame rate mode : Constant
Frame rate : 23.976 (24000/1001) fps
Color space : YUV
Chroma subsampling : 4:2:0
Bit depth : 10 bits
Scan type : Progressive
Bits/(Pixel*Frame) : 0.509
Stream size : 2.18 GiB (87%)
Writing library : x264 core 120 r2120+639 552713c
Encoding settings : cabac=1 / ref=16 / deblock=1:0:0 / analyse=0x3:0x133 / me=umh / subme=10 / psy=1 / fade_compensate=0.00 / psy_rd=1.00:0.00 / mixed_ref=1 / me_range=24 / chroma_me=1 / trellis=2 / 8x8dct=1 / cqm=0 / deadzone=21,11 / fast_pskip=0 / chroma_qp_offset=-2 / threads=1 / sliced_threads=0 / nr=0 / decimate=1 / interlaced=0 / bluray_compat=0 / constrained_intra=0 / fgo=0 / bframes=8 / b_pyramid=2 / b_adapt=2 / b_bias=0 / direct=3 / weightb=1 / open_gop=0 / weightp=2 / keyint=480 / keyint_min=5 / scenecut=40 / intra_refresh=0 / rc=crf / mbtree=0 / crf=16.0 / qcomp=0.80 / qpmin=0 / qpmax=33 / qpstep=4 / ip_ratio=1.40 / pb_ratio=1.30 / aq=1:0.80
Language : English
Default : Yes
Forced : No
Color range : Limited
Matrix coefficients : BT.601
Audio #1
ID : 2
Format : AAC
Format/Info : Advanced Audio Codec
Format profile : LC
Codec ID : A_AAC
Duration : 1h 21mn
Bit rate : 192 Kbps
Channel(s) : 2 channels
Channel positions : Front: L R
Sampling rate : 48.0 KHz
Frame rate : 46.875 fps (1024 spf)
Compression mode : Lossy
Stream size : 112 MiB (4%)
Title : AniDub
Language : Russian
Default : Yes
Forced : No
Audio #2
ID : 3
Format : AC-3
Format/Info : Audio Coding 3
Mode extension : CM (complete main)
Format settings, Endianness : Big
Codec ID : A_AC3
Duration : 1h 21mn
Bit rate mode : Constant
Bit rate : 384 Kbps
Channel(s) : 2 channels
Channel positions : Front: L R
Sampling rate : 48.0 KHz
Frame rate : 31.250 fps (1536 spf)
Compression mode : Lossy
Stream size : 223 MiB (9%)
Title : Original
Language : Japanese
Default : No
Forced : No
Text
ID : 4
Format : ASS
Codec ID : S_TEXT/ASS
Codec ID/Info : Advanced Sub Station Alpha
Duration : 1h 20mn
Bit rate : 84 bps
Count of elements : 564
Compression mode : Lossless
Stream size : 50.2 KiB (0%)
Title : Полные субтитры
Language : Russian
Default : Yes
Forced : No



   Похожие торренты   Торрент   Размер 
В этой теме нет новых непрочитанных сообщений. Грязная Парочка / Dirty Pair [01-26 из 26] (1985) DVDRip | L2

172 | 25

9.07 ГБ

В этой теме нет новых непрочитанных сообщений. Грязная Парочка: Ноландское дело / Dirty Pair: Nolandia no Nazo OVA (1985) DVDRip | L2

69 | 3

1.52 ГБ

В этой теме нет новых непрочитанных сообщений. Восточный Эдем (К востоку от рая) / Eden of The East (Higashi no Eden) 2009 DVDRip

7 | 3

2.87 ГБ

В этой теме нет новых непрочитанных сообщений. Грязная дюжина: Следующее задание / The Dirty Dozen: Next Mission (1985) DVDRip-AVC | A

84 | 16

2.65 ГБ

В этой теме нет новых непрочитанных сообщений. «Эдем» и после / L'éden et après (1970) DVDRip

162 | 96

1.09 ГБ

В этой теме нет новых непрочитанных сообщений. Возвращение в Эдем / Return to Eden [01-03 из 03] (1983) DVDRip

119 | 15

3 ГБ

В этой теме нет новых непрочитанных сообщений. Мой научный проект / My Science Project (1985) DVDRip от Doctor No.

2 | 4

1.36 ГБ




Вы не можете начинать темы
Вы не можете отвечать на сообщения
Вы не можете редактировать свои сообщения
Вы не можете удалять свои сообщения
Вы не можете добавлять вложения

Перейти:  
Для Мосгорсуда, Роскомнадзора и рекламодателей: mosgorsud-torrent[собачка]yandex.ru
 Вход
ppkBB3cker v.2 © 2008-2014 @ PPK
[ Time : 0.536s | 15 Queries | GZIP : Off ]

Торрент трекер RUTOR.IN, Не можете зайти на rutor.org? Какой новый адрес рутор? Какое зеркало рутор? Не работает rutor.org и зеркала? Тогда наш торрент специально для вас. Rutor.in неофициальное зеркало rutor. В случае если у Вас заблокирован rutor или вдруг Вы не можете на него зайти, то Вы без труда сможете скачать бесплатно и без рекламы последние новинки кино, игр, сериалов и прочего у нас, на Rutor.in. Не нужно использовать прокси, чтобы зайти на рутор, достаточно воспользоваться нашим ресурсом. Все новые фильмы, игры, сериалы, книги и музыка за 2013 и 2014 годы через торрент бесплатно. Скачивайте фильмы в хорошем качестве, игры для пк, xbox, playstation без регистрации. У нас вы найдете новые Зарубежные сериалы и Русские сериалы 2013, 2014, 2015 годов. Оставайтесь с нами, качайте любимые фильмы, игры, сериалы, книги и музыку.
cron