img image001 image001 image001 image001 image001 image001 image001 image001 image001 image001 image001 image001 image001 image001 image001

Planets Sun Sun Sun
Статистика раздачи
Автор: Nickolas3434 | Размер: 3.28 ГБ | Добавлен: 03 авг 2016
Раздают: 24    Качают: 5
Скачать торрент
Скачать торрент
Описание торрента

СообщениеДобавлено: 03 авг 2016 


Информация о фильме
Название: Полёт ведьмы
Оригинальное название: Flying Witch
Год выхода: 2016
Жанр: повседневность, комедия, фэнтези
Режиссер: Сакураби Кацуси
Художник: Окумура Ясухиро
В ролях: Синода Минами, Судзуки Эри, Сугавара Синсукэ, Аой Кана, Миками Сиори, Хино Мари, Игути Юка, Каяно Ай, Сакура Аянэ, Одзава Ари
О фильме:
Макото Ковата, плохо ориентирующаяся в пространстве, переезжает жить в доме у родственников. Но это не всё...
Манга о повседневной жизни ведьм в современной Японии.
World Art | MAL
Страна: Япония
Студия: J.C. Staff
Продолжительность: 00:22:50
Язык: Русский, Японский
Перевод: Любительский (двухголосый, закадровый)
Файл
Качество: HDTVRip
Формат: MKV
Кодек: H.264
Аудио кодек: AAC
Видео: 1280x720, 23.976 fps, 1500 kbps
Аудио RUS: 48.0 kHz, AAC, 2 ch, 192 kbps - SHIZA Project
Аудио JAP: 48.0 kHz, AAC, 2 ch, 192 kbps
Субтитры: русские (встроенные надписи, ASS)
Субтитры: русские (встроенные полный перевод, ASS) - YakuSub Studio
Субтитры: русские (встроенные полный перевод, ASS) - T_T subs
Субтитры: русские (встроенные полный перевод, ASS) - I.D.A
Релиз от:
Озвучивание: Pantsu_Man, Тань-УХ-а
Перевод: Advantage (01-02), AOS
Тайминг и работа со звуком: Мисари, CaypoH

01. Шесть лет без чудес
02. Ведьмин посетитель
03. Уроки сельского хозяйства и магии
04. Предсказательница, под вуалью цветов сакуры
05. Как использовать фамильяра
06. Конфеты или жизнь
07. Кафе "Конкруцио"
08. Постоянные клиенты
09. Послезавтра будет сегодня
10. Кулинария и пчёлы
11. Кит в небесах
12. Мантия ведьмы и множество способов провести день
General
Format : Matroska
Format version : Version 4 / Version 2
File size : 307 MiB
Duration : 22mn 49s
Overall bit rate : 1 881 Kbps
Encoded date : UTC 2016-08-02 06:48:47
Writing application : mkvmerge v8.3.0 ('Over the Horizon') 64bit
Writing library : libebml v1.3.1 + libmatroska v1.4.2
Video
ID : 1
Format : AVC
Format/Info : Advanced Video Codec
Format profile : High@L4.1
Format settings, CABAC : Yes
Format settings, ReFrames : 4 frames
Codec ID : V_MPEG4/ISO/AVC
Duration : 22mn 49s
Bit rate : 1 493 Kbps
Width : 1 280 pixels
Height : 720 pixels
Display aspect ratio : 16:9
Frame rate mode : Constant
Frame rate : 23.976 (24000/1001) fps
Color space : YUV
Chroma subsampling : 4:2:0
Bit depth : 8 bits
Scan type : Progressive
Bits/(Pixel*Frame) : 0.068
Stream size : 244 MiB (79%)
Writing library : x264 core 129 r2245+729M 1a52e03
Encoding settings : cabac=1 / ref=4 / deblock=1:1:-1 / analyse=0x3:0x113 / me=umh / subme=9 / psy=1 / fade_compensate=0.00 / psy_rd=1.00:0.00 / mixed_ref=1 / me_range=24 / chroma_me=1 / trellis=2 / 8x8dct=1 / cqm=0 / deadzone=21,11 / fast_pskip=1 / chroma_qp_offset=-2 / threads=8 / lookahead_threads=1 / sliced_threads=0 / nr=0 / decimate=1 / interlaced=0 / bluray_compat=0 / constrained_intra=0 / fgo=0 / bframes=9 / b_pyramid=2 / b_adapt=2 / b_bias=0 / direct=1 / weightb=1 / open_gop=0 / weightp=2 / keyint=240 / keyint_min=24 / scenecut=40 / intra_refresh=0 / rc=crf / mbtree=0 / crf=18.0 / qcomp=0.72 / qpmin=0 / qpmax=69 / qpstep=4 / ip_ratio=1.40 / pb_ratio=1.30 / aq=1:0.85
Language : Japanese
Default : Yes
Forced : No
Color range : Limited
Color primaries : BT.709
Transfer characteristics : BT.709
Matrix coefficients : BT.709
Audio #1
ID : 2
Format : AAC
Format/Info : Advanced Audio Codec
Format profile : LC
Codec ID : A_AAC
Duration : 22mn 49s
Bit rate : 192 Kbps
Channel(s) : 2 channels
Channel positions : Front: L R
Sampling rate : 48.0 KHz
Frame rate : 46.875 fps (1024 spf)
Compression mode : Lossy
Delay relative to video : 9ms
Stream size : 31.4 MiB (10%)
Title : SHIZA Project
Language : Russian
Default : Yes
Forced : No
Audio #2
ID : 3
Format : AAC
Format/Info : Advanced Audio Codec
Format profile : LC
Codec ID : A_AAC
Duration : 22mn 49s
Bit rate : 192 Kbps
Channel(s) : 2 channels
Channel positions : Front: L R
Sampling rate : 48.0 KHz
Frame rate : 46.875 fps (1024 spf)
Compression mode : Lossy
Stream size : 31.3 MiB (10%)
Title : Original
Language : Japanese
Default : No
Forced : No
Text #1
ID : 4
Format : ASS
Codec ID : S_TEXT/ASS
Codec ID/Info : Advanced Sub Station Alpha
Duration : 20mn 17s
Bit rate : 3 bps
Count of elements : 7
Compression mode : Lossless
Stream size : 476 Bytes (0%)
Title : Надписи
Language : Russian
Default : Yes
Forced : No
Text #2
ID : 5
Format : ASS
Codec ID : S_TEXT/ASS
Codec ID/Info : Advanced Sub Station Alpha
Duration : 21mn 23s
Bit rate : 191 bps
Count of elements : 392
Compression mode : Lossless
Stream size : 30.0 KiB (0%)
Title : YakuSub Studio
Language : Russian
Default : No
Forced : No
Text #3
ID : 6
Format : ASS
Codec ID : S_TEXT/ASS
Codec ID/Info : Advanced Sub Station Alpha
Duration : 21mn 42s
Bit rate : 675 bps
Count of elements : 1044
Compression mode : Lossless
Stream size : 107 KiB (0%)
Title : T_T subs
Language : Russian
Default : No
Forced : No
Text #4
ID : 7
Format : ASS
Codec ID : S_TEXT/ASS
Codec ID/Info : Advanced Sub Station Alpha
Duration : 21mn 42s
Bit rate : 192 bps
Count of elements : 425
Compression mode : Lossless
Stream size : 30.6 KiB (0%)
Title : I.D.A
Language : Russian
Default : No
Forced : No



   Похожие торренты   Торрент   Размер 
В этой теме нет новых непрочитанных сообщений. Полет ведьмы / Flying Witch [01-03 из 12] (2016) WEBRip 720p | L1

0 | 0

1005.22 МБ

В этой теме нет новых непрочитанных сообщений. Полет ведьмы / Flying Witch [01-07 из 12] (2016) WEBRip 720p | L1

1 | 0

2.29 ГБ

В этой теме нет новых непрочитанных сообщений. Полет ведьмы / Flying Witch [01-06 из 12] (2016) WEBRip 720p | L1

0 | 0

1.96 ГБ

В этой теме нет новых непрочитанных сообщений. Полет ведьмы / Flying Witch [12 из 12] (2016) WEBRip 720p | L1

49 | 21

3.93 ГБ

В этой теме нет новых непрочитанных сообщений. Полет ведьмы / Flying Witch [01-04 из 12] (2016) WEBRip 720p | L1

17 | 7

1.31 ГБ

В этой теме нет новых непрочитанных сообщений. Полет ведьмы / Flying Witch [01-09 из 12] (2016) WEBRip 720p | L1

2 | 0

2.94 ГБ

В этой теме нет новых непрочитанных сообщений. Полет ведьмы / Flying Witch [01-08 из 12] (2016) WEBRip 720p | L1

0 | 2

2.62 ГБ




Вы не можете начинать темы
Вы не можете отвечать на сообщения
Вы не можете редактировать свои сообщения
Вы не можете удалять свои сообщения
Вы не можете добавлять вложения

Перейти:  
Для Мосгорсуда, Роскомнадзора и рекламодателей: mosgorsud-torrent[собачка]yandex.ru
 Вход
ppkBB3cker v.2 © 2008-2014 @ PPK
[ Time : 0.140s | 14 Queries | GZIP : Off ]

Торрент трекер RUTOR.IN, Не можете зайти на rutor.org? Какой новый адрес рутор? Какое зеркало рутор? Не работает rutor.org и зеркала? Тогда наш торрент специально для вас. Rutor.in неофициальное зеркало rutor. В случае если у Вас заблокирован rutor или вдруг Вы не можете на него зайти, то Вы без труда сможете скачать бесплатно и без рекламы последние новинки кино, игр, сериалов и прочего у нас, на Rutor.in. Не нужно использовать прокси, чтобы зайти на рутор, достаточно воспользоваться нашим ресурсом. Все новые фильмы, игры, сериалы, книги и музыка за 2013 и 2014 годы через торрент бесплатно. Скачивайте фильмы в хорошем качестве, игры для пк, xbox, playstation без регистрации. У нас вы найдете новые Зарубежные сериалы и Русские сериалы 2013, 2014, 2015 годов. Оставайтесь с нами, качайте любимые фильмы, игры, сериалы, книги и музыку.