img image001 image001 image001 image001 image001 image001 image001 image001 image001 image001 image001 image001 image001 image001 image001

Planets Sun Sun Sun
Статистика раздачи
Автор: PriZraK | Размер: 10.66 ГБ | Добавлен: 25 авг 2016
Раздают: 8    Качают: 4
Скачать торрент
Скачать торрент
Описание торрента

СообщениеДобавлено: 25 авг 2016 


Страна: Япония
Год выпуска: 2015 г.
Жанр: комедия
Тип: TV
Продолжительность: ТВ (24 эп.), 25 мин.
Режиссер: Режиссер: Ёнэтани Ёситомо
Студия: J.C. Staff
Описание:
Мечта Юкихиры Сома - стать полноценным шеф-поваром ресторана своего отца и превзойти его в кулинарии. Но как только Юкихира закончил среднюю школу Юкихира Дзюичиро, его отец, закрыл ресторан и отправился готовить в Америку. Боевой дух Сомы, который был угнетен, возрождается вызовом Дзюичиро, цель которого выжить в элитной кулинарной школе, где выпускается только 10% учеников. Сможет ли Сома выжить?
Молодой, одаренный повар в столовке общественного питания создает совершенно новое блюдо. Не поддающееся здравому смыслу новое объедение , какое же оно?
Качество: HDTVRip
Тип релиза: Без хардсаба
Формат видео: AVI
Автор рипа:

Видео: XviD, 704x396, 23.976 fps, ~2388 Kbps
Аудио 1: AC3 48 КГц; 192 Кбит/сек , 2.0 Язык Русский (в составе контейнера) ; Озвучка: женская одноголосая: Persona99
Аудио 2: AC3 48 КГц; 192 Кбит/сек , 2.0 Язык Японский
Субтитры: внешние Язык субтитров русский ; Перевод: kaeleh Редакция & оформление: Holydarkness Лирика: MantisFL
Код:
Общее
Полное имя                               : Shokugeki no SoumaShokugeki no Souma - 01.avi
Формат                                   : AVI
Формат/Информация                        : Audio Video Interleave
Размер файла                             : 497 Мбайт
Продолжительность                        : 24 м.
Общий поток                              : 2786 Кбит/сек
Программа кодирования                    : VirtualDubModRus 1.5.10.2 (build 2542/release)
Библиотека кодирования                   : VirtualDubMod build 2542/release
Видео
Идентификатор                            : 0
Формат                                   : MPEG-4 Visual
Профиль формата                          : Advanced Simple@L5
Параметр BVOP формата                    : 2
Параметр QPel формата                    : Нет
Параметр GMC формата                     : Без точки перехода
Параметр матрицы формата                 : Default (H.263)
Идентификатор кодека                     : XVID
Идентификатор кодека/Подсказка           : XviD
Продолжительность                        : 24 м.
Битрейт                                  : 2388 Кбит/сек
Ширина                                   : 704 пикселя
Высота                                   : 396 пикселей
Соотношение сторон                       : 16:9
Частота кадров                           : 23,976 кадра/сек
Цветовое пространство                    : YUV
Субдискретизация насыщенности            : 4:2:0
Битовая глубина                          : 8 бит
Тип развёртки                            : Прогрессивная
Метод сжатия                             : С потерями
Бит/(Пиксели*Кадры)                      : 0.357
Размер потока                            : 426 Мбайт (86%)
Библиотека кодирования                   : XviD 64
Аудио #1
Идентификатор                            : 1
Формат                                   : AC-3
Формат/Информация                        : Audio Coding 3
Расширение режима                        : CM (complete main)
Параметр Endianness формата              : Big
Идентификатор кодека                     : 2000
Продолжительность                        : 24 м.
Вид битрейта                             : Постоянный
Битрейт                                  : 192 Кбит/сек
Каналы                                   : 2 канала
Расположение каналов                     : Front: L R
Частота                                  : 48,0 КГц
Битовая глубина                          : 16 бит
Метод сжатия                             : С потерями
Размер потока                            : 34,2 Мбайт (7%)
Выравнивание                             : Разделение по промежуткам
Продолжительность промежутка             : 42  мс. (1,00 видеокадр)
Время предзагрузки промежутка            : 500  мс.
Заголовок                                : Persona99
Аудио #2
Идентификатор                            : 2
Формат                                   : AC-3
Формат/Информация                        : Audio Coding 3
Расширение режима                        : CM (complete main)
Параметр Endianness формата              : Big
Идентификатор кодека                     : 2000
Продолжительность                        : 24 м.
Вид битрейта                             : Постоянный
Битрейт                                  : 192 Кбит/сек
Каналы                                   : 2 канала
Расположение каналов                     : Front: L R
Частота                                  : 48,0 КГц
Битовая глубина                          : 16 бит
Метод сжатия                             : С потерями
Размер потока                            : 34,2 Мбайт (7%)
Выравнивание                             : Разделение по промежуткам
Продолжительность промежутка             : 42  мс. (1,00 видеокадр)
Время предзагрузки промежутка            : 500  мс.
Заголовок                                : Japanese
 
01. Безграничный мир вкусов
02. Язык от бога
03. Повар, который не улыбается
04. Мария «Полярной звезды»
05. Снежная королева и весенняя буря
06. Мясной захватчик
07. Тихий дон, красноречивый дон
08. Дуэт вдохновения и фантазии
09. Горная краса
10. Божественный рецепт
11. Восточный чародей
12. Воспоминания блюда
13. Яйца на заре
14. Метаморфоза
15. Имя ему — Демон
16. Повар, прошедший тысячи миль
17. Чувствительное караагэ
18. Караагэ молодости
19. Избранный
20. Пробудившийся дракон воспаряет в небо
21. Знакомые незнакомцы
22. Превосходящие обыденность
23. Соревнование ярких личностей
24. Банкет воинов




   Похожие торренты   Торрент   Размер 
В этой теме нет новых непрочитанных сообщений. Кулинарная битва Сомы / Кулинарные поединки Сомы / Повар-боец Сома / Shokugeki no Souma [01-02 из 13] (2015) HDTVRip 720p от SDIncorporation | L2

6 | 4

970 МБ

В этой теме нет новых непрочитанных сообщений. Кулинарная битва Сомы / Кулинарные поединки Сомы / Повар-боец Сома / Shokugeki no Souma [01-03 из 13] (2015) HDTVRip 720p от SDIncorporation

3 | 6

1.38 ГБ

В этой теме нет новых непрочитанных сообщений. Кулинарные поединки Сомы / Shokugeki no Souma [01 из 13] (2015) HDTVRip 720p | AniFilm

7 | 3

970.32 МБ

В этой теме нет новых непрочитанных сообщений. Кулинарные поединки Сомы / Shokugeki no Souma [01-24 из 24] (2015) HDTVRip 720p | AniFilm

139 | 56

11.58 ГБ

В этой теме нет новых непрочитанных сообщений. Кулинарные поединки Сомы / Shokugeki no Souma [01 из 13] (2015) HDTVRip 720p | AniFilm

2 | 4

1.78 ГБ

В этой теме нет новых непрочитанных сообщений. Кулинарные поединки Сомы / Shokugeki no Souma [01 из 13] (2015) HDTVRip 720p | AniFilm

1 | 3

1.38 ГБ

В этой теме нет новых непрочитанных сообщений. Кулинарные поединки Сомы / Shokugeki no Souma [01 из 13] (2015) HDTVRip 720p | AniFilm

31 | 20

2.21 ГБ




Вы не можете начинать темы
Вы не можете отвечать на сообщения
Вы не можете редактировать свои сообщения
Вы не можете удалять свои сообщения
Вы не можете добавлять вложения

Перейти:  
Для Мосгорсуда, Роскомнадзора и рекламодателей: mosgorsud-torrent[собачка]yandex.ru
 Вход
ppkBB3cker v.2 © 2008-2014 @ PPK
[ Time : 0.040s | 14 Queries | GZIP : Off ]

Торрент трекер RUTOR.IN, Не можете зайти на rutor.org? Какой новый адрес рутор? Какое зеркало рутор? Не работает rutor.org и зеркала? Тогда наш торрент специально для вас. Rutor.in неофициальное зеркало rutor. В случае если у Вас заблокирован rutor или вдруг Вы не можете на него зайти, то Вы без труда сможете скачать бесплатно и без рекламы последние новинки кино, игр, сериалов и прочего у нас, на Rutor.in. Не нужно использовать прокси, чтобы зайти на рутор, достаточно воспользоваться нашим ресурсом. Все новые фильмы, игры, сериалы, книги и музыка за 2013 и 2014 годы через торрент бесплатно. Скачивайте фильмы в хорошем качестве, игры для пк, xbox, playstation без регистрации. У нас вы найдете новые Зарубежные сериалы и Русские сериалы 2013, 2014, 2015 годов. Оставайтесь с нами, качайте любимые фильмы, игры, сериалы, книги и музыку.