img image001 image001 image001 image001 image001 image001 image001 image001 image001 image001 image001 image001 image001 image001 image001

Planets Sun Sun Sun
Статистика раздачи
Автор: PriZraK | Размер: 7.27 ГБ | Добавлен: 19 сен 2016
Раздают: 38    Качают: 10
Скачать торрент
Скачать торрент
Описание торрента

СообщениеДобавлено: 19 сен 2016 


Информация о фильме
Название: Берсерк [ТВ-2]
Оригинальное название: Berserk
Год выхода: 2016
Жанр: приключения, фэнтези
Режиссер: Итагаки Син
Художник: Ито Хирому, Огура Наоми
В ролях: Иванага Хироаки, Мидзухара Каору, Хикаса Ёко, Симоно Хиро
О фильме:
Гатс, также известный как Чёрный Мечник, ищет убежища от демонических сил, преследующих его и его женщину, а также отмщения мужчине, заклеймившему его «нечистой жертвой». Поддерживаемый только своей титанической силой, умениями и мечом, Гатс вынужден бороться со своей мрачной судьбой, всё время сражаясь с яростью, способной лишить его человечности.
World Art | MAL
Страна: Япония
Студия: Liden Films & Millepensee
Продолжительность: 00:24:30
Язык: Русский, Японский
Перевод: Любительский (многоголосый, закадровый)
Файл
Качество: HDTVRip
Формат: MKV
Кодек: H.264
Аудио кодек: AAC
Видео: 1280x720, 23.976 fps, 5000 kbps
Аудио RUS: 48.0 kHz, AAC, 2 ch, 192 kbps - SHIZA Project
Аудио JAP: 48.0 kHz, AAC, 2 ch, 192 kbps
Субтитры: русские (встроенные полный перевод, ASS) - Anku & mutagenb
Релиз от:
Озвучивание: NIKITOS, Snowly, Тань-УХ-а, Лизавета
Перевод: Anku & mutagenb
Тайминг и работа со звуком: Gigantic Guyver

01. Меч, разящий драконов
02. Рыцари святой железной цепи
03. Ночь чудес
04. Откровение
05. Башня осуждения
General
Format : Matroska
Format version : Version 4 / Version 2
File size : 939 MiB
Duration : 24mn 26s
Overall bit rate : 5 368 Kbps
Encoded date : UTC 2016-07-03 05:01:19
Writing application : mkvmerge v8.3.0 ('Over the Horizon') 64bit
Writing library : libebml v1.3.1 + libmatroska v1.4.2
Video
ID : 1
Format : AVC
Format/Info : Advanced Video Codec
Format profile : High@L4.1
Format settings, CABAC : Yes
Format settings, ReFrames : 4 frames
Codec ID : V_MPEG4/ISO/AVC
Duration : 24mn 26s
Bit rate : 4 981 Kbps
Width : 1 280 pixels
Height : 720 pixels
Display aspect ratio : 16:9
Frame rate mode : Constant
Frame rate : 23.976 (24000/1001) fps
Color space : YUV
Chroma subsampling : 4:2:0
Bit depth : 8 bits
Scan type : Progressive
Bits/(Pixel*Frame) : 0.225
Stream size : 871 MiB (93%)
Writing library : x264 core 129 r2245+729M 1a52e03
Encoding settings : cabac=1 / ref=4 / deblock=1:1:-1 / analyse=0x3:0x113 / me=umh / subme=9 / psy=1 / fade_compensate=0.00 / psy_rd=1.00:0.00 / mixed_ref=1 / me_range=24 / chroma_me=1 / trellis=2 / 8x8dct=1 / cqm=0 / deadzone=21,11 / fast_pskip=1 / chroma_qp_offset=-2 / threads=8 / lookahead_threads=1 / sliced_threads=0 / nr=0 / decimate=1 / interlaced=0 / bluray_compat=0 / constrained_intra=0 / fgo=0 / bframes=9 / b_pyramid=2 / b_adapt=2 / b_bias=0 / direct=1 / weightb=1 / open_gop=0 / weightp=2 / keyint=240 / keyint_min=24 / scenecut=40 / intra_refresh=0 / rc=crf / mbtree=0 / crf=16.5 / qcomp=0.72 / qpmin=0 / qpmax=69 / qpstep=4 / ip_ratio=1.40 / pb_ratio=1.30 / aq=1:0.85
Language : Japanese
Default : Yes
Forced : No
Color range : Limited
Color primaries : BT.709
Transfer characteristics : BT.709
Matrix coefficients : BT.709
Audio #1
ID : 2
Format : AAC
Format/Info : Advanced Audio Codec
Format profile : LC
Codec ID : A_AAC
Duration : 24mn 26s
Bit rate : 192 Kbps
Channel(s) : 2 channels
Channel positions : Front: L R
Sampling rate : 48.0 KHz
Frame rate : 46.875 fps (1024 spf)
Compression mode : Lossy
Stream size : 33.6 MiB (4%)
Title : SHIZA Project
Language : Russian
Default : Yes
Forced : No
Audio #2
ID : 3
Format : AAC
Format/Info : Advanced Audio Codec
Format profile : LC
Codec ID : A_AAC
Duration : 24mn 26s
Bit rate : 192 Kbps
Channel(s) : 2 channels
Channel positions : Front: L R
Sampling rate : 48.0 KHz
Frame rate : 46.875 fps (1024 spf)
Compression mode : Lossy
Stream size : 33.6 MiB (4%)
Title : Original
Language : Japanese
Default : No
Forced : No
Text
ID : 4
Format : ASS
Codec ID : S_TEXT/ASS
Codec ID/Info : Advanced Sub Station Alpha
Duration : 24mn 24s
Bit rate : 96 bps
Count of elements : 241
Compression mode : Lossless
Stream size : 17.2 KiB (0%)
Title : Anku & mutagenb
Language : Russian
Default : Yes
Forced : No
Когда раздача ведётся путём добавления новых серий, при каждом добавлении создётся новый торрент. Чтобы начать докачку новой серии, пользователям необходимо сделать следующее:
(1) остановить скачивание,
(2) удалить старый торрент у себя из клиента (старые серии удалять не надо),
(3) скачать новый торрент и запустить его у себя в клиенте вместо старого, при этом указать клиенту путь в старую папку, куда и должно происходить скачивание новых серий.
Ваш клиент при этом должен произвести хеширование (проверку) старой папки (если не производит сам - помогите ему сделать это), и будет докачивать только те серии, которых у вас ещё нет. Старые серии при этом не удаляются, а продолжают раздаваться!
Eсли вы уже удалили старые серии, то предотвратить повторную закачку старых серий можно, отжав галочку в соответсвующих местах при запуске нового торрента. По возможности, желательно не удалять старые серии как можно дольше, чтобы релизёр не столько продолжал раздавать старые серии, а смог сконцентрироваться на новых.



   Похожие торренты   Торрент   Размер 
В этой теме нет новых непрочитанных сообщений. Берсерк [ТВ-2] / Berserk [02х01-04 из 13] (2016) HDTVRip 720p | SHIZA Project

38 | 25

3.06 ГБ

В этой теме нет новых непрочитанных сообщений. Берсерк [ТВ-2] / Berserk [02х01-05 из 13] (2016) HDTVRip 720p | SHIZA Project

26 | 33

3.71 ГБ

В этой теме нет новых непрочитанных сообщений. Берсерк [ТВ-2] / Berserk [02х01-05 из 13] (2016) HDTVRip 720p | SHIZA Project

45 | 41

5.18 ГБ

В этой теме нет новых непрочитанных сообщений. Берсерк [ТВ-2] / Berserk [02х01-02 из 13] (2016) HDTVRip 720p | SHIZA Project

18 | 7

1.64 ГБ

В этой теме нет новых непрочитанных сообщений. Берсерк [ТВ-2] / Berserk [02х01-05 из 13] (2016) HDTVRip 720p | SHIZA Project

53 | 47

4.41 ГБ

В этой теме нет новых непрочитанных сообщений. Берсерк [ТВ-2] / Berserk [02х01-05 из 13] (2016) HDTVRip 720p | SHIZA Project

44 | 202

5.92 ГБ

В этой теме нет новых непрочитанных сообщений. Берсерк [ТВ-2] / Berserk [02х01 из 13] (2016) HDTVRip 720p | SHIZA Project

32 | 0

938.76 МБ




Вы не можете начинать темы
Вы не можете отвечать на сообщения
Вы не можете редактировать свои сообщения
Вы не можете удалять свои сообщения
Вы не можете добавлять вложения

Перейти:  
Для Мосгорсуда, Роскомнадзора и рекламодателей: mosgorsud-torrent[собачка]yandex.ru
 Вход
ppkBB3cker v.2 © 2008-2014 @ PPK
[ Time : 0.029s | 14 Queries | GZIP : Off ]

Торрент трекер RUTOR.IN, Не можете зайти на rutor.org? Какой новый адрес рутор? Какое зеркало рутор? Не работает rutor.org и зеркала? Тогда наш торрент специально для вас. Rutor.in неофициальное зеркало rutor. В случае если у Вас заблокирован rutor или вдруг Вы не можете на него зайти, то Вы без труда сможете скачать бесплатно и без рекламы последние новинки кино, игр, сериалов и прочего у нас, на Rutor.in. Не нужно использовать прокси, чтобы зайти на рутор, достаточно воспользоваться нашим ресурсом. Все новые фильмы, игры, сериалы, книги и музыка за 2013 и 2014 годы через торрент бесплатно. Скачивайте фильмы в хорошем качестве, игры для пк, xbox, playstation без регистрации. У нас вы найдете новые Зарубежные сериалы и Русские сериалы 2013, 2014, 2015 годов. Оставайтесь с нами, качайте любимые фильмы, игры, сериалы, книги и музыку.