img image001 image001 image001 image001 image001 image001 image001 image001 image001 image001 image001 image001 image001 image001 image001

Planets Sun Sun Sun
Статистика раздачи
Автор: PriZraK | Размер: 4.89 ГБ | Добавлен: 25 сен 2016
Раздают: 74    Качают: 12
Скачать торрент
Скачать торрент
Описание торрента

СообщениеДобавлено: 25 сен 2016 


Информация о фильме
Название: Повторная жизнь
Оригинальное название: ReLife
Год выхода: 2016
Жанр: комедия, повседневность, романтика
Режиссер: Косака Сатору
Художник: Акияма Кэнтаро, Дзама Томоко
В ролях: Оно Кэнсё, Каяно Ай, Кимура Рёхэй, Томацу Харука, Утида Юма, Уэда Рэйна, Аканэя Химика, Сугияма Нориаки, Намикава Дайсукэ, Савасиро Миюки, Хатано Ватару, Сирайси Рёко
О фильме:
Эта история об Арате Кайзаки, 27-летнем безработном мужчине, который потерпел неудачу в каждом собеседовании после того, как был уволен с предыдущего места работы. Его жизнь меняет встреча с Рё Йоакэ из научно-исследовательского института «Повторная жизнь», который предложил Арате препарат, способный изменить его внешность, сделав снова 17-летним, и стать объектом эксперимента на один год. Таким образом он начинает свою жизнь заново в качестве ученика старшей школы.
World Art | MAL
Страна: Япония
Студия: TMS
Продолжительность: 00:23:59
Язык: Русский, Японский
Перевод: Любительский (двухголосый, закадровый)
Файл
Качество: HDTVRip
Формат: MKV
Кодек: H.264
Аудио кодек: AC3, AAC
Видео: 1280x720, 23.976 fps, 2800 kbps
Аудио RUS: 48.0 kHz, AC3, 2 ch, 192 kbps - SHIZA Project
Аудио JAP: 48.0 kHz, AAC, 2 ch, 192 kbps
Субтитры: русские (встроенные надписи, ASS)
Субтитры: русские (встроенные полный перевод, ASS) - YakuSub Studio
Субтитры: русские (встроенные полный перевод, ASS) - AOS Team
Релиз от:
Озвучивание: Мистас, Лизавета
Перевод: Veles (01), Fansub AOS (02-13)
Тайминг и работа со звуком: Мисари (01-10), Мистас (11-13)

Отчёт первый. Кайдзаки Арата. 27 лет, безработный.
Отчёт второй. Навыки общения: ноль баллов.
Отчёт третий. Ты уже старик.
Отчёт четвёртый. Падение.
Отчёт пятый. Пересечение.
Отчёт шестой. Не в первый раз.
Отчёт седьмой. Смена объекта.
Отчёт восьмой. Разлом.
Отчёт девятый. Месть.
Отчёт десятый. Эгоистичные желания каждого.
Отчёт одиннадцатый. Двойная паника.
Отчёт двенадцатый. Усиленная паника.
Отчёт тринадцатый. Признание.
General
Format : Matroska
Format version : Version 4 / Version 2
File size : 551 MiB
Duration : 23 min
Overall bit rate : 3 210 kb/s
Encoded date : UTC 2016-09-24 12:52:01
Writing application : mkvmerge v8.3.0 ('Over the Horizon') 64bit
Writing library : libebml v1.3.1 + libmatroska v1.4.2
Video
ID : 1
Format : AVC
Format/Info : Advanced Video Codec
Format profile : High@L4.1
Format settings, CABAC : Yes
Format settings, ReFrames : 4 frames
Codec ID : V_MPEG4/ISO/AVC
Duration : 23 min
Bit rate : 2 823 kb/s
Width : 1 280 pixels
Height : 720 pixels
Display aspect ratio : 16:9
Frame rate mode : Constant
Frame rate : 23.976 (24000/1001) FPS
Color space : YUV
Chroma subsampling : 4:2:0
Bit depth : 8 bits
Scan type : Progressive
Bits/(Pixel*Frame) : 0.128
Stream size : 485 MiB (88%)
Writing library : x264 core 129 r2245+729M 1a52e03
Encoding settings : cabac=1 / ref=4 / deblock=1:1:-1 / analyse=0x3:0x113 / me=umh / subme=9 / psy=1 / fade_compensate=0.00 / psy_rd=1.00:0.00 / mixed_ref=1 / me_range=24 / chroma_me=1 / trellis=2 / 8x8dct=1 / cqm=0 / deadzone=21,11 / fast_pskip=1 / chroma_qp_offset=-2 / threads=8 / lookahead_threads=1 / sliced_threads=0 / nr=0 / decimate=1 / interlaced=0 / bluray_compat=0 / constrained_intra=0 / fgo=0 / bframes=9 / b_pyramid=2 / b_adapt=2 / b_bias=0 / direct=1 / weightb=1 / open_gop=0 / weightp=2 / keyint=240 / keyint_min=24 / scenecut=40 / intra_refresh=0 / rc=crf / mbtree=0 / crf=15.5 / qcomp=0.72 / qpmin=0 / qpmax=69 / qpstep=4 / ip_ratio=1.40 / pb_ratio=1.30 / aq=1:0.85
Language : Japanese
Default : Yes
Forced : No
Color range : Limited
Color primaries : BT.709
Transfer characteristics : BT.709
Matrix coefficients : BT.709
Audio #1
ID : 2
Format : AC-3
Format/Info : Audio Coding 3
Mode extension : CM (complete main)
Format settings, Endianness : Big
Codec ID : A_AC3
Duration : 23 min
Bit rate mode : Constant
Bit rate : 192 kb/s
Channel(s) : 2 channels
Channel positions : Front: L R
Sampling rate : 48.0 kHz
Frame rate : 31.250 FPS (1536 spf)
Compression mode : Lossy
Stream size : 33.0 MiB (6%)
Title : SHIZA Project
Language : Russian
Default : Yes
Forced : No
Audio #2
ID : 3
Format : AAC
Format/Info : Advanced Audio Codec
Format profile : LC
Codec ID : A_AAC
Duration : 23 min
Bit rate : 192 kb/s
Channel(s) : 2 channels
Channel positions : Front: L R
Sampling rate : 48.0 kHz
Frame rate : 46.875 FPS (1024 spf)
Compression mode : Lossy
Stream size : 32.9 MiB (6%)
Title : Original JAP
Language : Japanese
Default : No
Forced : No
Text #1
ID : 4
Format : ASS
Codec ID : S_TEXT/ASS
Codec ID/Info : Advanced Sub Station Alpha
Duration : 23 min
Bit rate : 6 b/s
Count of elements : 12
Compression mode : Lossless
Stream size : 1.14 KiB (0%)
Title : Надписи
Language : Russian
Default : Yes
Forced : No
Text #2
ID : 5
Format : ASS
Codec ID : S_TEXT/ASS
Codec ID/Info : Advanced Sub Station Alpha
Duration : 23 min
Bit rate : 316 b/s
Count of elements : 498
Compression mode : Lossless
Stream size : 55.0 KiB (0%)
Title : YakuSub Studio
Language : Russian
Default : No
Forced : No
Text #3
ID : 6
Format : ASS
Codec ID : S_TEXT/ASS
Codec ID/Info : Advanced Sub Station Alpha
Duration : 23 min
Bit rate : 179 b/s
Count of elements : 409
Compression mode : Lossless
Stream size : 31.1 KiB (0%)
Title : AOS Team
Language : Russian
Default : No
Forced : No



   Похожие торренты   Торрент   Размер 
В этой теме нет новых непрочитанных сообщений. Повторная жизнь / ReLIFE [ТВ] [01-04 из 12] (2016) HDTVRip 720p | L1

2 | 1

1.35 ГБ

В этой теме нет новых непрочитанных сообщений. Повторная жизнь / ReLIFE [ТВ] [01 из 12] (2016) HDTVRip 720p | L1

6 | 1

345.02 МБ

В этой теме нет новых непрочитанных сообщений. Повторная жизнь / ReLIFE [ТВ] [01-02 из 12] (2016) HDTVRip 720p | L1

8 | 1

688.81 МБ

В этой теме нет новых непрочитанных сообщений. Повторная жизнь / ReLIFE [ТВ] [01-03 из 12] (2016) HDTVRip 720p | L1

0 | 1

1.01 ГБ

В этой теме нет новых непрочитанных сообщений. Повторная жизнь / ReLIFE [01-03 из 13] (2016) HDTVRip 720p от FabulousMic

0 | 2

1.46 ГБ

В этой теме нет новых непрочитанных сообщений. Повторная жизнь / ReLIFE [01-04 из 13] (2016) HDTVRip 720p от FabulousMic | L1

5 | 2

1.8 ГБ

В этой теме нет новых непрочитанных сообщений. Повторная жизнь / ReLIFE [01-01 из 13] (2016) HDTVRip 720p от FabulousMic

1 | 1

348.01 МБ




Вы не можете начинать темы
Вы не можете отвечать на сообщения
Вы не можете редактировать свои сообщения
Вы не можете удалять свои сообщения
Вы не можете добавлять вложения

Перейти:  
Для Мосгорсуда, Роскомнадзора и рекламодателей: mosgorsud-torrent[собачка]yandex.ru
 Вход
ppkBB3cker v.2 © 2008-2014 @ PPK
[ Time : 0.043s | 14 Queries | GZIP : Off ]

Торрент трекер RUTOR.IN, Не можете зайти на rutor.org? Какой новый адрес рутор? Какое зеркало рутор? Не работает rutor.org и зеркала? Тогда наш торрент специально для вас. Rutor.in неофициальное зеркало rutor. В случае если у Вас заблокирован rutor или вдруг Вы не можете на него зайти, то Вы без труда сможете скачать бесплатно и без рекламы последние новинки кино, игр, сериалов и прочего у нас, на Rutor.in. Не нужно использовать прокси, чтобы зайти на рутор, достаточно воспользоваться нашим ресурсом. Все новые фильмы, игры, сериалы, книги и музыка за 2013 и 2014 годы через торрент бесплатно. Скачивайте фильмы в хорошем качестве, игры для пк, xbox, playstation без регистрации. У нас вы найдете новые Зарубежные сериалы и Русские сериалы 2013, 2014, 2015 годов. Оставайтесь с нами, качайте любимые фильмы, игры, сериалы, книги и музыку.