img image001 image001 image001 image001 image001 image001 image001 image001 image001 image001 image001 image001 image001 image001 image001

Planets Sun Sun Sun
Статистика раздачи
Автор: PriZraK | Размер: 6.01 ГБ | Добавлен: 25 сен 2016
Раздают: 180    Качают: 76
Скачать торрент
Скачать торрент
Описание торрента

СообщениеДобавлено: 25 сен 2016 


Информация о фильме
Название: Магическая академия Атараксия
Оригинальное название: Masou Gakuen HxH
Год выхода: 2016
Жанр: комедия, этти, фентези, романтика
Режиссер: Фурукава Хироюки
Художник: Татэйси Такэси, Охира Цукаса, Касикава Эйдзи
В ролях: Акабанэ Кэндзи, Кагэяма Акари, Акасаки Тинацу, Нагацума Дзюри, Кино Хина, Кинугава Рика
О фильме:
История этой серии разворачивается вокруг паренька по имени Кидзуна Хида, который обладает способностью "усиливать" девушек занимаясь с ними непристойностями. Его способность оказывается решающей для него и других учащихся академии стратегической обороны Атараксия в борьбе с иным миром.
World Art | MAL
Страна: Япония
Студия: Production IMS
Продолжительность: 00:24:00
Язык: Русский, Японский
Перевод: Любительский (двухголосый, закадровый)
Файл
Качество: HDTVRip
Формат: MKV
Кодек: H.264
Аудио кодек: AAC
Видео: 1280x720, 23.976 fps, 3000 kbps
Аудио RUS: 48.0 kHz, AAC, 2 ch, 192 kbps - SHIZA Project
Аудио JAP: 48.0 kHz, AAC, 2 ch, 192 kbps
Субтитры: русские (встроенные полный перевод, ASS) - Jenia aka Zub & Oni & Tousaka Jun
Релиз от:
Озвучивание: Dancel, RJ Pandora
Перевод: Jenia aka Zub & Oni & Tousaka Jun
Тайминг и работа со звуком: HipsterCat (01-06), nyder (07-09)

01. Училище стратегической обороны "Мир и покой"
02. Сердечное совмещение
03. Мирные деньки - воспоминания
04. Высшее слияние
05. Серия пятая КРАСАВИЦЫ страны КИРПИЧА и ГРАВИЯ: БИТВАТЛАНТИДА
06. Несравненный рассекатель - ГЛАДИЙ
07. Героиня империи - ГРАБЕЛЬ
08. Соеденительное совмещение
09. Праздник в училище - ПЕРВОЕ ВЫСТУПЛЕНИЕ
10. Канун решающей битвы - УСТАНОВКА
11. Операция по отвоеванию Токио - АПОКАЛИПСИС
12. Айне - АЙНЕС
General
Format: Matroska
Format version: Version 4 / Version 2
File size : 578 MiB
Duration: 24 min
Overall bit rate: 3 364 kb/s
Encoded date: UTC 2016-09-18 15:17:01
Writing application : mkvmerge v8.3.0 ('Over the Horizon') 64bit
Writing library : libebml v1.3.1 + libmatroska v1.4.2
Video
ID: 1
Format: AVC
Format/Info : Advanced Video Codec
Format profile: High@L4.1
Format settings, CABAC: Yes
Format settings, ReFrames : 4 frames
Codec ID: V_MPEG4/ISO/AVC
Duration: 24 min
Bit rate: 3 002 kb/s
Width : 1 280 pixels
Height: 720 pixels
Display aspect ratio: 16:9
Frame rate mode : Constant
Frame rate: 23.976 (24000/1001) FPS
Color space : YUV
Chroma subsampling: 4:2:0
Bit depth : 8 bits
Scan type : Progressive
Bits/(Pixel*Frame): 0.136
Stream size : 515 MiB (89%)
Writing library : x264 core 129 r2245+729M 1a52e03
Encoding settings : cabac=1 / ref=4 / deblock=1:1:-1 / analyse=0x3:0x113 / me=umh / subme=9 / psy=1 / fade_compensate=0.00 / psy_rd=1.00:0.00 / mixed_ref=1 / me_range=24 / chroma_me=1 / trellis=2 / 8x8dct=1 / cqm=0 / deadzone=21,11 / fast_pskip=1 / chroma_qp_offset=-2 / threads=8 / lookahead_threads=1 / sliced_threads=0 / nr=0 / decimate=1 / interlaced=0 / bluray_compat=0 / constrained_intra=0 / fgo=0 / bframes=9 / b_pyramid=2 / b_adapt=2 / b_bias=0 / direct=1 / weightb=1 / open_gop=0 / weightp=2 / keyint=240 / keyint_min=24 / scenecut=40 / intra_refresh=0 / rc=crf / mbtree=0 / crf=18.0 / qcomp=0.72 / qpmin=0 / qpmax=69 / qpstep=4 / ip_ratio=1.40 / pb_ratio=1.30 / aq=1:0.85
Language: Japanese
Default : Yes
Forced: No
Color range : Limited
Color primaries : BT.709
Transfer characteristics: BT.709
Matrix coefficients : BT.709
Audio #1
ID: 2
Format: AAC
Format/Info : Advanced Audio Codec
Format profile: LC
Codec ID: A_AAC
Duration: 24 min
Bit rate: 168 kb/s
Channel(s): 2 channels
Channel positions : Front: L R
Sampling rate : 48.0 kHz
Frame rate: 46.875 FPS (1024 spf)
Compression mode: Lossy
Stream size : 28.8 MiB (5%)
Title : SHIZA Project
Language: Russian
Default : Yes
Forced: No
Audio #2
ID: 3
Format: AAC
Format/Info : Advanced Audio Codec
Format profile: LC
Codec ID: A_AAC
Duration: 24 min
Bit rate: 192 kb/s
Channel(s): 2 channels
Channel positions : Front: L R
Sampling rate : 48.0 kHz
Frame rate: 46.875 FPS (1024 spf)
Compression mode: Lossy
Stream size : 32.9 MiB (6%)
Title : Original
Language: Japanese
Default : No
Forced: No
Text
ID: 4
Format: ASS
Codec ID: S_TEXT/ASS
Codec ID/Info : Advanced Sub Station Alpha
Duration: 23 min
Bit rate: 106 b/s
Count of elements : 289
Compression mode: Lossless
Stream size : 18.4 KiB (0%)
Title : Полные субтитры
Language: Russian
Default : Yes
Forced: No



   Похожие торренты   Торрент   Размер 
В этой теме нет новых непрочитанных сообщений. 35ый отряд Антимагической академии / Taimadou Gakuen 35 Shiken Shoutai [01-11 из 12] (2015) HDTVRip 720p | SHIZA Project

227 | 17

4.65 ГБ

В этой теме нет новых непрочитанных сообщений. 35ый отряд Антимагической академии / Taimadou Gakuen 35 Shiken Shoutai [01-07 из 12] (2015) HDTVRip 720p | SHIZA Project

48 | 36

2.96 ГБ

В этой теме нет новых непрочитанных сообщений. 35ый отряд Антимагической академии / Taimadou Gakuen 35 Shiken Shoutai [01-06 из 12] (2015) HDTVRip 720p | SHIZA Project

15 | 5

2.53 ГБ

В этой теме нет новых непрочитанных сообщений. 35ый отряд Антимагической академии / Taimadou Gakuen 35 Shiken Shoutai [01-12 из 12] (2015) HDTVRip 720p | SHIZA Project

379 | 68

5.07 ГБ

В этой теме нет новых непрочитанных сообщений. 35ый отряд Антимагической академии / Taimadou Gakuen 35 Shiken Shoutai [01-08 из 12] (2015) HDTVRip 720p | SHIZA Project

14 | 14

3.37 ГБ

В этой теме нет новых непрочитанных сообщений. 35ый отряд Антимагической академии / Taimadou Gakuen 35 Shiken Shoutai [01-02 из 12] (2015) HDTVRip 720p | SHIZA Project

20 | 7

855.17 МБ

В этой теме нет новых непрочитанных сообщений. 35ый отряд Антимагической академии / Taimadou Gakuen 35 Shiken Shoutai [01-04 из 12] (2015) HDTVRip 720p | SHIZA Project

14 | 26

1.68 ГБ




Вы не можете начинать темы
Вы не можете отвечать на сообщения
Вы не можете редактировать свои сообщения
Вы не можете удалять свои сообщения
Вы не можете добавлять вложения

Перейти:  
Для Мосгорсуда, Роскомнадзора и рекламодателей: mosgorsud-torrent[собачка]yandex.ru
 Вход
ppkBB3cker v.2 © 2008-2014 @ PPK
[ Time : 0.045s | 14 Queries | GZIP : Off ]

Торрент трекер RUTOR.IN, Не можете зайти на rutor.org? Какой новый адрес рутор? Какое зеркало рутор? Не работает rutor.org и зеркала? Тогда наш торрент специально для вас. Rutor.in неофициальное зеркало rutor. В случае если у Вас заблокирован rutor или вдруг Вы не можете на него зайти, то Вы без труда сможете скачать бесплатно и без рекламы последние новинки кино, игр, сериалов и прочего у нас, на Rutor.in. Не нужно использовать прокси, чтобы зайти на рутор, достаточно воспользоваться нашим ресурсом. Все новые фильмы, игры, сериалы, книги и музыка за 2013 и 2014 годы через торрент бесплатно. Скачивайте фильмы в хорошем качестве, игры для пк, xbox, playstation без регистрации. У нас вы найдете новые Зарубежные сериалы и Русские сериалы 2013, 2014, 2015 годов. Оставайтесь с нами, качайте любимые фильмы, игры, сериалы, книги и музыку.