img image001 image001 image001 image001 image001 image001 image001 image001 image001 image001 image001 image001 image001 image001 image001

Planets Sun Sun Sun
Статистика раздачи
Автор: PriZraK | Размер: 8.99 ГБ | Добавлен: 23 окт 2016
Раздают: 29    Качают: 20
Скачать торрент
Скачать торрент
Описание торрента

СообщениеДобавлено: 23 окт 2016 


Информация о фильме
Название: Капитан Земля
Оригинальное название: Captain Earth
Год выхода: 2016
Жанр: приключения, фантастика, меха, романтика
Режиссер: Игараси Такуя
Художник: Это Кодзи, Янака Масару, Такахаси Такэюки
В ролях: Ирино Мию, Камия Хироси, Каяно Ай, Хидака Рина, Кояма Рикия, Судзумура Кэнъити, Сакамото Маая, Сакагути Койти, Морикава Тосиюки, Надзука Каори, Такаги Сюн, Канэмото Рёсукэ, Соми Ёко, Коивай Котори, Накагами Икуми, Кусао Такэси, Го Сиро, Оно Ацуси, Мацутани Кая, Утида Юя, Усида Хироко, Симовада Хироки, Утияма Коки, Ямамото Нодзоми, Хан Мэгуми, Кудо Харука, Тоёнага Тосиюки
О фильме:
Дайти Манацу вырос на острове Танэгасима, в сердце японской космической программы. После гибели отца-астронавта мальчик уехал с острова и вернулся уже 17-летним подростком. Гуляя по знакомым до боли местам, парень заглянул в заброшенный ангар, где, как и положено, встретил свою судьбу. Теперь Дайти – пилот боевого робота и лидер команды защиты Земли, состоящей из друзей детства Тэппэя и Ханы. Вот только предаваться воспоминаниям герою некогда – враги, убившие его отца, уже здесь.
Кстати, враги, человекообразные машины из глубин космоса, вовсе не заинтересованы в уничтожении человечества. Просто они считают, что люди слишком напрягаются от избытка жизненной энергии, и от этого избытка их надо дружески освободить, превратив в дойное стадо. Но великолепная троица главных героев, усиленная гениальным хакером Акари, сможет добрым словом и оргонным лучом объяснить наглым пришельцам всю глубину их заблуждений. В конце концов, спали несчастные машины сотню миллионов лет – и еще поспят!
© Hollow, World Art
World Art | MAL
Страна: Япония
Студия: BONES
Продолжительность: 00:24:30
Язык: Русский, Японский
Перевод: Любительский (двухголосый, закадровый)
Файл
Качество: WEBRip
Формат: MKV
Видео кодек: H.264
Аудио кодек: AAC
Видео: 1280x720, 23.976 fps, 1800 kbps
Аудио RUS: 48.0 kHz, AAC, 2 ch, 192 kbps - SHIZA Project
Аудио JAP: 48.0 kHz, AAC, 2 ch, 128 kbps
Субтитры: русские (встроенные полный перевод, ASS) - AleX_MytH & BO3DYX & Reaper
Релиз от:
Озвучивание: MrDareuds (01-16), Yupi (17-25), NesTea (01-16), Estel (17-25)
Перевод: Horosant
Тайминг и работа со звуком: Pronik, Ency, Мисари, Black-eyed

01. Земной двигатель рвётся в бой
02. Имя тебе - Ливластер!
03. Радуга Альбиона
04. Неожиданное нападение
05. Книга с картинками звездного неба
06. План Кивотос
07. Рыцари летнего солнцестояния
08. Недобрый знак
09. Волшебница Акари-чан
10. На просторах ветренной планеты
11. Сквозь лучик мгновения
12. Поле боя для парней
13. Мой город
14. Блеск невинной слезы в ночи
15. Истинная сущность
16. Её Вспышка.
17. Рыцари Лета.
18. Бойня в пустыне.
19. «Твоя улыбка – всё для меня».
20. Захват спутника.
21. «Что значит „капитан“».
22. Операция "Лето".
23. Сон в летнюю ночь.
24. "Оберон".
25. Капитан Земля.
General
Format : Matroska
Format version : Version 4 / Version 2
File size : 371 MiB
Duration : 24 min
Overall bit rate : 2 095 kb/s
Encoded date : UTC 2016-10-12 18:04:18
Writing application : mkvmerge v8.3.0 ('Over the Horizon') 64bit
Writing library : libebml v1.3.1 + libmatroska v1.4.2
Attachments : Commerce_Black_Condensed_SSi_Bold_Condensed.ttf
Video
ID : 1
Format : AVC
Format/Info : Advanced Video Codec
Format profile : High@L4
Format settings, CABAC : Yes
Format settings, ReFrames : 6 frames
Codec ID : V_MPEG4/ISO/AVC
Duration : 24 min
Bit rate : 1 776 kb/s
Width : 1 280 pixels
Height : 720 pixels
Display aspect ratio : 16:9
Frame rate mode : Variable
Frame rate : 23.976 (23976/1000) FPS
Color space : YUV
Chroma subsampling : 4:2:0
Bit depth : 8 bits
Scan type : Progressive
Bits/(Pixel*Frame) : 0.080
Stream size : 314 MiB (85%)
Writing library : x264 core 120 r2120 0c7dab9
Encoding settings : cabac=1 / ref=6 / deblock=1:1:1 / analyse=0x3:0x113 / me=umh / subme=8 / psy=1 / psy_rd=0.40:0.00 / mixed_ref=1 / me_range=16 / chroma_me=1 / trellis=1 / 8x8dct=1 / cqm=0 / deadzone=21,11 / fast_pskip=1 / chroma_qp_offset=-2 / threads=4 / sliced_threads=0 / nr=0 / decimate=1 / interlaced=0 / bluray_compat=0 / constrained_intra=0 / bframes=3 / b_pyramid=2 / b_adapt=2 / b_bias=0 / direct=3 / weightb=1 / open_gop=0 / weightp=2 / keyint=250 / keyint_min=23 / scenecut=40 / intra_refresh=0 / rc_lookahead=50 / rc=2pass / mbtree=1 / bitrate=1776 / ratetol=1.0 / qcomp=0.60 / qpmin=0 / qpmax=69 / qpstep=4 / cplxblur=20.0 / qblur=0.5 / vbv_maxrate=3552 / vbv_bufsize=8880 / nal_hrd=none / ip_ratio=1.40 / aq=1:0.60
Language : Japanese
Default : Yes
Forced : No
Audio #1
ID : 2
Format : AAC
Format/Info : Advanced Audio Codec
Format profile : LC
Codec ID : A_AAC
Duration : 24 min
Bit rate : 192 kb/s
Channel(s) : 2 channels
Channel positions : Front: L R
Sampling rate : 48.0 kHz
Frame rate : 46.875 FPS (1024 spf)
Compression mode : Lossy
Stream size : 34.0 MiB (9%)
Title : SHIZA Project
Language : Russian
Default : Yes
Forced : No
Audio #2
ID : 3
Format : AAC
Format/Info : Advanced Audio Codec
Format profile : LC
Codec ID : A_AAC
Duration : 24 min
Bit rate : 128 kb/s
Channel(s) : 2 channels
Channel positions : Front: L R
Sampling rate : 44.1 kHz
Frame rate : 43.066 FPS (1024 spf)
Compression mode : Lossy
Stream size : 22.7 MiB (6%)
Title : JAP Original
Language : Japanese
Default : No
Forced : No
Text
ID : 4
Format : ASS
Codec ID : S_TEXT/ASS
Codec ID/Info : Advanced Sub Station Alpha
Duration : 24 min
Bit rate : 125 b/s
Count of elements : 325
Compression mode : Lossless
Stream size : 22.6 KiB (0%)
Title : Полные субтитры
Language : Russian
Default : Yes
Forced : No



   Похожие торренты   Торрент   Размер 
В этой теме нет новых непрочитанных сообщений. Капитан Земля / Captain Earth [01-15 из 24] (2014) HDTVRip 720p от Animedia | L

12 | 13

5.65 ГБ

В этой теме нет новых непрочитанных сообщений. Капитан Земля / Captain Earth [01-16 из 24] (2014) HDTVRip 720p от Animedia | L

30 | 12

6.05 ГБ

В этой теме нет новых непрочитанных сообщений. Капитан Планета / Captain Earth [01-25 из 25] (2014) HDTVRip 720p | L2

162 | 61

8.34 ГБ

В этой теме нет новых непрочитанных сообщений. Капитан Планета / Captain Earth [01-04 из 25] (2014) HDTVRip 720p

14 | 31

1.45 ГБ

В этой теме нет новых непрочитанных сообщений. Капитан Планета / Captain Earth [01-02 из 25] (2014) HDTVRip 720p

21 | 12

820.03 МБ

В этой теме нет новых непрочитанных сообщений. Капитан Планета / Captain Earth [01 из 25] (2014) HDTVRip 720p

30 | 88

480.11 МБ

В этой теме нет новых непрочитанных сообщений. Связанные / Kiznaiver [01-05 из 12] (2016) WEBRip 720p | AniDub, SHIZA Project

4 | 2

2.76 ГБ




Вы не можете начинать темы
Вы не можете отвечать на сообщения
Вы не можете редактировать свои сообщения
Вы не можете удалять свои сообщения
Вы не можете добавлять вложения

Перейти:  
Для Мосгорсуда, Роскомнадзора и рекламодателей: mosgorsud-torrent[собачка]yandex.ru
 Вход
ppkBB3cker v.2 © 2008-2014 @ PPK
[ Time : 0.055s | 16 Queries | GZIP : Off ]

Торрент трекер RUTOR.IN, Не можете зайти на rutor.org? Какой новый адрес рутор? Какое зеркало рутор? Не работает rutor.org и зеркала? Тогда наш торрент специально для вас. Rutor.in неофициальное зеркало rutor. В случае если у Вас заблокирован rutor или вдруг Вы не можете на него зайти, то Вы без труда сможете скачать бесплатно и без рекламы последние новинки кино, игр, сериалов и прочего у нас, на Rutor.in. Не нужно использовать прокси, чтобы зайти на рутор, достаточно воспользоваться нашим ресурсом. Все новые фильмы, игры, сериалы, книги и музыка за 2013 и 2014 годы через торрент бесплатно. Скачивайте фильмы в хорошем качестве, игры для пк, xbox, playstation без регистрации. У нас вы найдете новые Зарубежные сериалы и Русские сериалы 2013, 2014, 2015 годов. Оставайтесь с нами, качайте любимые фильмы, игры, сериалы, книги и музыку.