img image001 image001 image001 image001 image001 image001 image001 image001 image001 image001 image001 image001 image001 image001 image001

Planets Sun Sun Sun
Статистика раздачи
Автор: PriZraK | Размер: 3.39 ГБ | Добавлен: 23 окт 2016
Раздают: 19    Качают: 4
Скачать торрент
Скачать торрент
Описание торрента

СообщениеДобавлено: 23 окт 2016 


Информация о фильме
Название: Милая и неугомонная
Оригинальное название: Amaama to Inazuma
Год выхода: 2016
Жанр: комедия, повседневность
Режиссер: Ивасаки Таро
Художник: Ямагути Масанори
В ролях: Накамура Юйти, Эндо Рина, Хаями Саори, Томацу Харука, Сэки Томокадзу
О фильме:
Тяжело приходится молодому учителю Кохэю Инузуки после смерти жены, на плечи которого ложатся все заботы о непоседливой дочурке Цумуги. Но малышке переживать не стоит, ведь папа у нее умный: и сказочку расскажет, и погулять хоть на край света сводит. Да вот только один изъян — готовить он абсолютно не умеет. А потому маленькой семье постоянно приходится питаться в кафе, а то и просто перебиваться готовыми полуфабрикатами из супермаркета.
Одним вечером они оказываются в ресторане по приглашению дочери владелицы, Котори, одной из учениц Кохэя. Вскоре становится очевидным, что и навыки готовки Котори оставляют желать лучшего. Но девушка не из понурого десятка и потому предлагает: а почему бы не готовить еду вместе? Втроем, глядишь, и получится что-то путное. Да и родители ее все равно поглощены разводом, что и она сама часто оказывается предоставлена сама себе. С тех пор и начинается история этой троицы и их совместного приготовления вкусной еды. А как известно, через желудок лежит кратчайший путь к сердцу.
World Art | MAL
Страна: Япония
Студия: TMS
Продолжительность: 00:24:00
Язык: Русский, Японский
Перевод: Любительский (двухголосый, закадровый)
Файл
Качество: HDTVRip
Формат: MKV
Видео кодек: H.264
Аудио кодек: AAC
Видео: 1280x720, 23.976 fps, 1600 kbps
Аудио RUS: 48.0 kHz, AAC, 2 ch, 192 kbps - SHIZA Project
Аудио JAP: 48.0 kHz, AAC, 2 ch, 192 kbps
Субтитры: русские (встроенные полный перевод, ASS) - YakuSub Studio
Релиз от:
Озвучивание: gobr, Лизавета
Перевод: YakuSub Studio
Тайминг и работа со звуком: Pavlik

01. Униформа и кастрюля риса
02. Гамбургер и суп со свининой
03. Мы в тебя верим с сестренкой
04. Ненавистные овощи и кучоки в гратене
05. Выходной и особые пончики
06. Вечеринка гёза с жареной гёза
07. Гохэй мочи и великое приключение
08. Рагу с кальмаром и таро, которая завтра будет еще вкуснее
09. Ночевка во время летних каникул
10. Летние каникулы, кошка и ставрида
11. Выступления и блинчики с бататом
12. Окономияки, сделанное с любовью
General
Format : Matroska
Format version : Version 4 / Version 2
File size : 337 MiB
Duration : 23 min
Overall bit rate : 1 961 kb/s
Encoded date : UTC 2016-10-22 09:02:01
Writing application : mkvmerge v8.3.0 ('Over the Horizon') 64bit
Writing library : libebml v1.3.1 + libmatroska v1.4.2
Video
ID : 1
Format : AVC
Format/Info : Advanced Video Codec
Format profile : High@L4.1
Format settings, CABAC : Yes
Format settings, ReFrames : 4 frames
Codec ID : V_MPEG4/ISO/AVC
Duration : 23 min
Bit rate : 1 596 kb/s
Width : 1 280 pixels
Height : 720 pixels
Display aspect ratio : 16:9
Frame rate mode : Constant
Frame rate : 23.976 (24000/1001) FPS
Color space : YUV
Chroma subsampling : 4:2:0
Bit depth : 8 bits
Scan type : Progressive
Bits/(Pixel*Frame) : 0.072
Stream size : 274 MiB (81%)
Writing library : x264 core 129 r2245+729M 1a52e03
Encoding settings : cabac=1 / ref=4 / deblock=1:1:-1 / analyse=0x3:0x113 / me=umh / subme=9 / psy=1 / fade_compensate=0.00 / psy_rd=1.00:0.00 / mixed_ref=1 / me_range=24 / chroma_me=1 / trellis=2 / 8x8dct=1 / cqm=0 / deadzone=21,11 / fast_pskip=1 / chroma_qp_offset=-2 / threads=8 / lookahead_threads=1 / sliced_threads=0 / nr=0 / decimate=1 / interlaced=0 / bluray_compat=0 / constrained_intra=0 / fgo=0 / bframes=9 / b_pyramid=2 / b_adapt=2 / b_bias=0 / direct=1 / weightb=1 / open_gop=0 / weightp=2 / keyint=240 / keyint_min=24 / scenecut=40 / intra_refresh=0 / rc=crf / mbtree=0 / crf=18.5 / qcomp=0.72 / qpmin=0 / qpmax=69 / qpstep=4 / ip_ratio=1.40 / pb_ratio=1.30 / aq=1:0.85
Language : Japanese
Default : No
Forced : No
Color range : Limited
Color primaries : BT.709
Transfer characteristics : BT.709
Matrix coefficients : BT.709
Audio #1
ID : 2
Format : AAC
Format/Info : Advanced Audio Codec
Format profile : LC
Codec ID : A_AAC
Duration : 23 min
Bit rate : 171 kb/s
Channel(s) : 2 channels
Channel positions : Front: L R
Sampling rate : 48.0 kHz
Frame rate : 46.875 FPS (1024 spf)
Compression mode : Lossy
Delay relative to video : 9 ms
Stream size : 29.4 MiB (9%)
Title : SHIZA Project
Language : Russian
Default : Yes
Forced : No
Audio #2
ID : 3
Format : AAC
Format/Info : Advanced Audio Codec
Format profile : LC
Codec ID : A_AAC
Duration : 23 min
Bit rate : 192 kb/s
Channel(s) : 2 channels
Channel positions : Front: L R
Sampling rate : 48.0 kHz
Frame rate : 46.875 FPS (1024 spf)
Compression mode : Lossy
Stream size : 32.9 MiB (10%)
Title : Original
Language : Japanese
Default : No
Forced : No
Text
ID : 4
Format : ASS
Codec ID : S_TEXT/ASS
Codec ID/Info : Advanced Sub Station Alpha
Duration : 23 min
Bit rate : 158 b/s
Count of elements : 382
Compression mode : Lossless
Stream size : 27.1 KiB (0%)
Title : Полные субтитры
Language : Russian
Default : Yes
Forced : No



   Похожие торренты   Торрент   Размер 
В этой теме нет новых непрочитанных сообщений. Кэйджо!!!!!!!! / Keijo!!!!!!!! [S01] (2016) HDTVRip 720p | SHIZA Project

14 | 1

6.64 ГБ

В этой теме нет новых непрочитанных сообщений. Полулюди [ТВ-2] / Ajin 2 [S02] (2016) HDTVRip 720p | AniDub, SHIZA Project

24 | 1

7.55 ГБ

В этой теме нет новых непрочитанных сообщений. Берсерк [ТВ-2] / Berserk [02х01-05 из 13] (2016) HDTVRip 720p | SHIZA Project

53 | 47

4.41 ГБ

В этой теме нет новых непрочитанных сообщений. Берсерк [ТВ-2] / Berserk [02х01-04 из 13] (2016) HDTVRip 720p | SHIZA Project

38 | 25

3.06 ГБ

В этой теме нет новых непрочитанных сообщений. Скитальцы / Drifters [01-04 из 12] (2016) HDTVRip 720p | AniDub, SHIZA Project

5 | 0

2.57 ГБ

В этой теме нет новых непрочитанных сообщений. Полулюди / Ajin [01-02 из 12] (2016) HDTVRip 720p | AniDub, SHIZA Project

48 | 8

1.08 ГБ

В этой теме нет новых непрочитанных сообщений. Берсерк [ТВ-2] / Berserk [02х01-02 из 13] (2016) HDTVRip 720p | SHIZA Project

18 | 7

1.64 ГБ




Вы не можете начинать темы
Вы не можете отвечать на сообщения
Вы не можете редактировать свои сообщения
Вы не можете удалять свои сообщения
Вы не можете добавлять вложения

Перейти:  
Для Мосгорсуда, Роскомнадзора и рекламодателей: mosgorsud-torrent[собачка]yandex.ru
 Вход
ppkBB3cker v.2 © 2008-2014 @ PPK
[ Time : 0.052s | 15 Queries | GZIP : Off ]

cron