img image001 image001 image001 image001 image001 image001 image001 image001 image001 image001 image001 image001 image001 image001 image001

Planets Sun Sun Sun
Статистика раздачи
Автор: PriZraK | Размер: 123.26 МБ | Добавлен: 29 окт 2016
Раздают: 65    Качают: 1
Скачать торрент
Скачать торрент
Описание торрента

СообщениеДобавлено: 29 окт 2016 


Информация о фильме
Название : Убежище
Оригинальное название : Shelter
Год выхода : 2016
Тип: ONA
Жанр : Музыкальный, фантастика
Режиссер : Тосифуми Акай
Описание : Короткое музыкальное видео, созданное студией A-1 Pictures в сотрудничестве с американским DJ Портером Робинсоном, а также французским музыкантом Madeon.
В центре сюжета — Рин, семнадцатилетняя девушка, живущая в бесконечной футуристической реальности, поддерживаемой симулятором. Каждый день она просыпается и попадает в свой собственный мир — прекрасное одиночество... В то время, как ее физическое тело, находящееся в коме, плывет во Вселенной, навсегда запертой в ловушке виртуальной модели мира. И из которой девушке не суждено проснуться.
| MAL
Страна : Япония
Производство : A-1 Pictures
Продолжительность : ~6 минуты
Перевод: Субтитры
Русские субтитры: YakuSub Studio
Переводчик: Sesha_Rim
Редакция: Aero
Оформление: Helge
Автор рипа : Неизвестен
Файл
Качество : WEBRip
Тип релиза: Хардсаб (русские субтитры)
Формат видео: mp4
Наличие линковки: Нет
Видео: MPEG-4, 1280x720 (16:9), 2691 kbps, 23.976 fps, 8bit
Аудио : Японский, AAC, 128 Кбит/с, 44.1 Hz, 2 ch


General
Complete name : E:/Torrent_2/[YakuSub Studio] Shelter - 00 [720p].mp4
Format : MPEG-4
Format profile : Base Media / Version 2
Codec ID : mp42
File size : 123 MiB
Duration : 6mn 6s
Overall bit rate mode : Variable
Overall bit rate : 2 822 Kbps
Encoded date : UTC 2016-10-26 19:52:31
Tagged date : UTC 2016-10-26 19:52:31
Video #201
ID : 201
Format : MPEG-4 Visual
Format profile : Advanced Simple@L5
Format settings, BVOP : Yes
Format settings, QPel : No
Format settings, GMC : No warppoints
Format settings, Matrix : Default (H.263)
Codec ID : 20
Duration : 6mn 6s
Bit rate mode : Variable
Bit rate : 2 691 Kbps
Maximum bit rate : 19.0 Mbps
Width : 1 280 pixels
Height : 720 pixels
Display aspect ratio : 16:9
Frame rate mode : Constant
Frame rate : 23.976 fps
Color space : YUV
Chroma subsampling : 4:2:0
Bit depth : 8 bits
Scan type : Progressive
Compression mode : Lossy
Bits/(Pixel*Frame) : 0.122
Stream size : 118 MiB (95%)
Writing library : XviD 1.2.1 (UTC 2008-12-04)
Encoded date : UTC 2016-10-26 19:52:31
Tagged date : UTC 2016-10-26 19:52:35
Audio #101
ID : 101
Format : AAC
Format/Info : Advanced Audio Codec
Format profile : LC
Codec ID : 40
Duration : 6mn 6s
Bit rate mode : Variable
Bit rate : 128 Kbps
Maximum bit rate : 140 Kbps
Channel(s) : 2 channels
Channel positions : Front: L R
Sampling rate : 44.1 KHz
Compression mode : Lossy
Stream size : 5.59 MiB (5%)
Encoded date : UTC 2016-10-26 19:52:34
Tagged date : UTC 2016-10-26 19:52:35
Other #2
ID : 2
Type : Object deion
Format : System
Codec ID : 1
Duration : 1s 0ms
Encoded date : UTC 2016-10-26 19:52:35
Tagged date : UTC 2016-10-26 19:52:35
Other #1
ID : 1
Type : Scene deion
Format : System Core
Codec ID : 2
Duration : 1s 0ms
Encoded date : UTC 2016-10-26 19:52:35
Tagged date : UTC 2016-10-26 19:52:35

Моя максимальная скорость отдачи 100КБ/c
Раздаю с 7:00 до 1:00 по Москве





   Похожие торренты   Торрент   Размер 
В этой теме нет новых непрочитанных сообщений. Убежище / Shelter (2010) BDRip 720p

10 | 3

4.7 ГБ

В этой теме нет новых непрочитанных сообщений. Убежище / Shelter (2010) BDRip 720p от FireBit

9 | 2

3.61 ГБ

В этой теме нет новых непрочитанных сообщений. Убежище / Shelter (2010) BDRip 720p от NOLIMITS-TEAM

6 | 2

2.38 ГБ

В этой теме нет новых непрочитанных сообщений. Убежище / Shelter (2010) DVD5

2 | 3

4.37 ГБ

В этой теме нет новых непрочитанных сообщений. Убежище / Shelter (2010) BDRip-AVC

18 | 4

745.29 МБ

В этой теме нет новых непрочитанных сообщений. Убежище / Shelter (2010) НDRip от Scarabey | D

61 | 7

746.23 МБ

В этой теме нет новых непрочитанных сообщений. Убежище / Shelter (2010) BDRip (AVC) от Kinobomond

4 | 2

2.18 ГБ




Вы не можете начинать темы
Вы не можете отвечать на сообщения
Вы не можете редактировать свои сообщения
Вы не можете удалять свои сообщения
Вы не можете добавлять вложения

Перейти:  
Для Мосгорсуда, Роскомнадзора и рекламодателей: mosgorsud-torrent[собачка]yandex.ru
 Вход
ppkBB3cker v.2 © 2008-2014 @ PPK
[ Time : 0.046s | 16 Queries | GZIP : Off ]

Торрент трекер RUTOR.IN, Не можете зайти на rutor.org? Какой новый адрес рутор? Какое зеркало рутор? Не работает rutor.org и зеркала? Тогда наш торрент специально для вас. Rutor.in неофициальное зеркало rutor. В случае если у Вас заблокирован rutor или вдруг Вы не можете на него зайти, то Вы без труда сможете скачать бесплатно и без рекламы последние новинки кино, игр, сериалов и прочего у нас, на Rutor.in. Не нужно использовать прокси, чтобы зайти на рутор, достаточно воспользоваться нашим ресурсом. Все новые фильмы, игры, сериалы, книги и музыка за 2013 и 2014 годы через торрент бесплатно. Скачивайте фильмы в хорошем качестве, игры для пк, xbox, playstation без регистрации. У нас вы найдете новые Зарубежные сериалы и Русские сериалы 2013, 2014, 2015 годов. Оставайтесь с нами, качайте любимые фильмы, игры, сериалы, книги и музыку.