img image001 image001 image001 image001 image001 image001 image001 image001 image001 image001 image001 image001 image001 image001 image001

Planets Sun Sun Sun
Статистика раздачи
Автор: PriZraK | Размер: 1.62 ГБ | Добавлен: 06 ноя 2016
Раздают: 27    Качают: 14
Скачать торрент
Скачать торрент
Описание торрента

СообщениеДобавлено: 06 ноя 2016 


Информация о фильме
Название: Полулюди [ТВ-2]
Оригинальное название: Ajin 2
Год выхода: 2016
Жанр: приключения, мистика, ужасы
Режиссер: Сэсита Хироюки, Андо Хироаки
Художник: Мацумото Ёсикацу, Оми Тихиро, Такахаси Сати
В ролях: Мияно Мамору, Хосоя Ёсимаса, Оцука Хотю, Сакурай Такахиро, Комацу Микако, Хиракава Дайсукэ, Судзаки Ая, Киносита Хироюки, Фукуяма Дзюн
О фильме:
Полулюди — существа, которые не могут умереть. Впервые они появились семнадцать лет назад на поле битвы в Африке. Подобные случаи стали повторяться, и человечество было вынуждено признать, что столкнулось с необъяснимым феноменом. Но, кроме факта существования, о полулюдях практически ничего неизвестно. Поэтому правительство объявило награду за поимку «живого» экземпляра в целях исследования.
Настоящее время. Обычный японский школьник предвкушает свои обычные японские летние каникулы, но не тут-то было... За это лето он явно изменится...
World Art | MAL
Страна: Япония
Студия: Polygon Pictures
Продолжительность: 00:24:30
Язык: Русский, Японский
Перевод: Любительский (двухголосый, закадровый)
Файл
Качество: HDTVRip
Формат: MKV
Видео кодек: H.264
Аудио кодек: AAC
Видео: 1280x720, 23.976 fps, 2700 kbps
Аудио RUS: 48.0 kHz, AAC, 2 ch, 192 kbps - AniDub
Аудио JAP: 48.0 kHz, AAC, 2 ch, 192 kbps
Субтитры: русские (встроенные полный перевод, ASS) - Anku & mutagenb
Релиз от:
Озвучивание: Trina_D, JAM
Перевод: Anku & mutagenb
Тайминг и работа со звуком: Alden

01. Как-то мне лень что-либо делать
General
Format : Matroska
Format version : Version 4 / Version 2
File size : 555 MiB
Duration : 24 min
Overall bit rate : 3 176 kb/s
Encoded date : UTC 2016-10-22 17:58:13
Writing application : mkvmerge v8.3.0 ('Over the Horizon') 64bit
Writing library : libebml v1.3.1 + libmatroska v1.4.2
Video
ID : 1
Format : AVC
Format/Info : Advanced Video Codec
Format profile : High@L4.1
Format settings, CABAC : Yes
Format settings, ReFrames : 4 frames
Codec ID : V_MPEG4/ISO/AVC
Duration : 24 min
Bit rate : 2 789 kb/s
Width : 1 280 pixels
Height : 720 pixels
Display aspect ratio : 16:9
Frame rate mode : Constant
Frame rate : 23.976 (24000/1001) FPS
Color space : YUV
Chroma subsampling : 4:2:0
Bit depth : 8 bits
Scan type : Progressive
Bits/(Pixel*Frame) : 0.126
Stream size : 488 MiB (88%)
Writing library : x264 core 129 r2245+729M 1a52e03
Encoding settings : cabac=1 / ref=4 / deblock=1:1:-1 / analyse=0x3:0x113 / me=umh / subme=9 / psy=1 / fade_compensate=0.00 / psy_rd=1.00:0.00 / mixed_ref=1 / me_range=24 / chroma_me=1 / trellis=2 / 8x8dct=1 / cqm=0 / deadzone=21,11 / fast_pskip=1 / chroma_qp_offset=-2 / threads=8 / lookahead_threads=1 / sliced_threads=0 / nr=0 / decimate=1 / interlaced=0 / bluray_compat=0 / constrained_intra=0 / fgo=0 / bframes=9 / b_pyramid=2 / b_adapt=2 / b_bias=0 / direct=1 / weightb=1 / open_gop=0 / weightp=2 / keyint=240 / keyint_min=24 / scenecut=40 / intra_refresh=0 / rc=crf / mbtree=0 / crf=17.5 / qcomp=0.72 / qpmin=0 / qpmax=69 / qpstep=4 / ip_ratio=1.40 / pb_ratio=1.30 / aq=1:0.85
Default : Yes
Forced : No
Color range : Limited
Color primaries : BT.709
Transfer characteristics : BT.709
Matrix coefficients : BT.709
Audio #1
ID : 2
Format : AAC
Format/Info : Advanced Audio Codec
Format profile : LC
Codec ID : A_AAC
Duration : 24 min
Bit rate : 192 kb/s
Channel(s) : 2 channels
Channel positions : Front: L R
Sampling rate : 48.0 kHz
Frame rate : 46.875 FPS (1024 spf)
Compression mode : Lossy
Stream size : 33.6 MiB (6%)
Title : AniDub
Language : Russian
Default : Yes
Forced : No
Audio #2
ID : 3
Format : AAC
Format/Info : Advanced Audio Codec
Format profile : LC
Codec ID : A_AAC
Duration : 24 min
Bit rate : 192 kb/s
Channel(s) : 2 channels
Channel positions : Front: L R
Sampling rate : 48.0 kHz
Frame rate : 46.875 FPS (1024 spf)
Compression mode : Lossy
Stream size : 33.5 MiB (6%)
Title : Original
Language : Japanese
Default : No
Forced : No
Text
ID : 4
Format : ASS
Codec ID : S_TEXT/ASS
Codec ID/Info : Advanced Sub Station Alpha
Duration : 24 min
Bit rate : 122 b/s
Count of elements : 270
Compression mode : Lossless
Stream size : 22.0 KiB (0%)
Title : Полные субтитры
Language : Russian
Default : Yes
Forced : No



   Похожие торренты   Торрент   Размер 
В этой теме нет новых непрочитанных сообщений. Полулюди [ТВ-2] / Ajin 2 [02x01 из 12] (2016) HDTVRip 720p | AniDub

27 | 6

555.45 МБ

В этой теме нет новых непрочитанных сообщений. Полулюди / Ajin [01-03 из 12] (2016) HDTVRip 720p | AniDub, SHIZA Project

30 | 13

1.58 ГБ

В этой теме нет новых непрочитанных сообщений. Полулюди / Ajin [01-09 из 12] (2016) HDTVRip 720p | AniDub, SHIZA Project

14 | 1

6.55 ГБ

В этой теме нет новых непрочитанных сообщений. Полулюди / Ajin [01-05 из 12] (2016) HDTVRip 720p | AniDub, SHIZA Project

17 | 6

2.63 ГБ

В этой теме нет новых непрочитанных сообщений. Полулюди / Ajin [01-08 из 12] (2016) HDTVRip 720p | AniDub, SHIZA Project

23 | 25

4.35 ГБ

В этой теме нет новых непрочитанных сообщений. Полулюди / Ajin [01-09 из 12] (2016) HDTVRip 720p | AniDub, SHIZA Project

34 | 22

4.89 ГБ

В этой теме нет новых непрочитанных сообщений. Полулюди / Ajin [01-02 из 12] (2016) HDTVRip 720p | AniDub, SHIZA Project

48 | 8

1.08 ГБ




Вы не можете начинать темы
Вы не можете отвечать на сообщения
Вы не можете редактировать свои сообщения
Вы не можете удалять свои сообщения
Вы не можете добавлять вложения

Перейти:  
Для Мосгорсуда, Роскомнадзора и рекламодателей: mosgorsud-torrent[собачка]yandex.ru
 Вход
ppkBB3cker v.2 © 2008-2014 @ PPK
[ Time : 0.051s | 14 Queries | GZIP : Off ]

Торрент трекер RUTOR.IN, Не можете зайти на rutor.org? Какой новый адрес рутор? Какое зеркало рутор? Не работает rutor.org и зеркала? Тогда наш торрент специально для вас. Rutor.in неофициальное зеркало rutor. В случае если у Вас заблокирован rutor или вдруг Вы не можете на него зайти, то Вы без труда сможете скачать бесплатно и без рекламы последние новинки кино, игр, сериалов и прочего у нас, на Rutor.in. Не нужно использовать прокси, чтобы зайти на рутор, достаточно воспользоваться нашим ресурсом. Все новые фильмы, игры, сериалы, книги и музыка за 2013 и 2014 годы через торрент бесплатно. Скачивайте фильмы в хорошем качестве, игры для пк, xbox, playstation без регистрации. У нас вы найдете новые Зарубежные сериалы и Русские сериалы 2013, 2014, 2015 годов. Оставайтесь с нами, качайте любимые фильмы, игры, сериалы, книги и музыку.