img image001 image001 image001 image001 image001 image001 image001 image001 image001 image001 image001 image001 image001 image001 image001

Planets Sun Sun Sun
Статистика раздачи
Автор: PriZraK | Размер: 7.13 ГБ | Добавлен: 06 ноя 2016
Раздают: 26    Качают: 9
Скачать торрент
Скачать торрент
Описание торрента

СообщениеДобавлено: 06 ноя 2016 


Информация о фильме
    Русское название: Дитя Чудовища
    Оригинальное название: Bakemono no Ko / The Boy and the Beast
    Год выхода: 2015
    Жанр: мультфильм, фэнтези, боевик, приключения, аниме
    Режиссер: Мамору Хосода
    Выпущено: Япония
    Продолжительность: 01:59:06
    Перевод: Любительский (двухголосый, закадровый), (многоголосый, закадровый), (трёхголосый, закадровый)
    Роли озвучивали: Якусё Кодзи, Миядзаки Аой, Сомэтани Сёта, Хиросэ Судзу, Оидзуми Ё, Лили Фрэнки, Цугава Масахико, Ямадзи Кадзухиро, Куроки Хару, Мияно Мамору, Оно Момока, Ямагути Каппэй, Морохоси Сумирэ, Нагацука Кэйси, Асо Кумико


Сюжет фильма
    Киюта, потерявшийся в Токио мальчик, проникает в альтернативную вселенную, где его растит борющийся за свое существование человек-медведь по имени Куматетсу. Он долгое время обучает мальчика боевым искусствам. В итоге Киюта становится участником катаклизма, охватившего оба мира.


Файл
    Качество: BDRip 1080p (исходник Blu-Ray Remux)
    Формат: MKV
    Видео: 1918x1036, 6149 Кбит/сек, 23,976 кадр/сек, AVC, x264, High@L4.1, 1.85:1, 0.129 Бит/[Пиксели*Кадры]
    Аудио 1: AC-3, 128 Кбит/сек, 2 канала(ов), 48,0 КГц - Двухголосый любительский закадровый, AniDUB / Русский
    Аудио 2: AC-3, 640 Кбит/сек, 6 канала(ов), 48,0 КГц - Многоголосый любительский закадровый, SHIZA-Project / Русский
    Аудио 3: AC-3, 640 Кбит/сек, 6 канала(ов), 48,0 КГц - Трёхголосый любительский закадровый, LE-Production / Русский
    Аудио 4: AC-3, 192 Кбит/сек, 2 канала(ов), 48,0 КГц - Трёхголосый любительский закадровый, ARRU / Русский
    Аудио 5: AC-3, 192 Кбит/сек, 2 канала(ов), 48,0 КГц - Трёхголосый любительский закадровый, ANIvoice / Русский
    Аудио 6: AC-3, 640 Кбит/сек, 6 канала(ов), 48,0 КГц - Оригинал / Японский
    Субтитры: Русские | Полные [zafhos]
    Форсированные субтитры: Нет
    Чаптеры (Главы): Есть
    Дополнительно: Озвучка
      AniDUB - Гамлетка Цезаревна & 9й Неизвестный
      SHIZA-Project - gobr, Dancel, Egoist, Тань-УХ-а & Viki
      LE-Production - Тимиркан Сиюхов, Маргарита Щелкунова и Михаил Глушенков
      ARRU - Keksik, MifSnaiper & Molodoy
      ANIvoice - Shira, Kombik & ShoutaVoice



Автор Рипа: Группа:



Format : Matroska
Format version : Version 2
File size : 7.13 GiB
Duration : 1 h 59 min
Overall bit rate : 8 575 kb/s
Movie name : Bakemono no Ko.(2015).BDRip.1080p.[envy]
Encoded date : UTC 2016-11-05 08:50:17
Writing application : mkvmerge v5.8.0 ('No Sleep / Pillow') built on Sep 2 2012 15:37:04
Writing library : libebml v1.2.3 + libmatroska v1.3.0
Video
ID : 1
Format : AVC
Format/Info : Advanced Video Codec
Format profile : High@L4.1
Format settings, CABAC : Yes
Format settings, ReFrames : 4 frames
Codec ID : V_MPEG4/ISO/AVC
Duration : 1 h 59 min
Bit rate : 6 149 kb/s
Width : 1 920 pixels
Height : 1 036 pixels
Display aspect ratio : 1.85:1
Frame rate mode : Constant
Frame rate : 23.976 (24000/1001) FPS
Color space : YUV
Chroma subsampling : 4:2:0
Bit depth : 8 bits
Scan type : Progressive
Bits/(Pixel*Frame) : 0.129
Stream size : 4.97 GiB (70%)
Title : Bakemono no Ko.(2015).BDRip.1080p.[envy]
Writing library : x264 core 148 r2721 72d53ab
Encoding settings : cabac=1 / ref=4 / deblock=1:-3:-3 / analyse=0x3:0x113 / me=umh / subme=11 / psy=1 / psy_rd=1.00:0.00 / mixed_ref=1 / me_range=32 / chroma_me=1 / trellis=2 / 8x8dct=1 / cqm=0 / deadzone=21,11 / fast_pskip=0 / chroma_qp_offset=-2 / threads=12 / lookahead_threads=1 / sliced_threads=0 / nr=0 / decimate=1 / interlaced=0 / bluray_compat=0 / constrained_intra=0 / bframes=5 / b_pyramid=2 / b_adapt=2 / b_bias=0 / direct=3 / weightb=1 / open_gop=0 / weightp=2 / keyint=240 / keyint_min=23 / scenecut=40 / intra_refresh=0 / rc=2pass / mbtree=0 / bitrate=6149 / ratetol=2.0 / qcomp=0.60 / qpmin=0 / qpmax=69 / qpstep=4 / cplxblur=20.0 / qblur=0.5 / ip_ratio=1.40 / pb_ratio=1.30 / aq=2:0.80
Language : Japanese
Default : Yes
Forced : No
Audio #1
ID : 2
Format : AC-3
Format/Info : Audio Coding 3
Mode extension : CM (complete main)
Format settings, Endianness : Big
Codec ID : A_AC3
Duration : 1 h 59 min
Bit rate mode : Constant
Bit rate : 128 kb/s
Channel(s) : 2 channels
Channel positions : Front: L R
Sampling rate : 48.0 kHz
Frame rate : 31.250 FPS (1536 spf)
Compression mode : Lossy
Stream size : 109 MiB (1%)
Title : AniDUB
Language : Russian
Default : Yes
Forced : No
Audio #2
ID : 3
Format : AC-3
Format/Info : Audio Coding 3
Mode extension : CM (complete main)
Format settings, Endianness : Big
Codec ID : A_AC3
Duration : 1 h 59 min
Bit rate mode : Constant
Bit rate : 640 kb/s
Channel(s) : 6 channels
Channel positions : Front: L C R, Side: L R, LFE
Sampling rate : 48.0 kHz
Frame rate : 31.250 FPS (1536 spf)
Compression mode : Lossy
Stream size : 545 MiB (7%)
Title : SHIZA-Project
Language : Russian
Default : No
Forced : No
Audio #3
ID : 4
Format : AC-3
Format/Info : Audio Coding 3
Mode extension : CM (complete main)
Format settings, Endianness : Big
Codec ID : A_AC3
Duration : 1 h 59 min
Bit rate mode : Constant
Bit rate : 640 kb/s
Channel(s) : 6 channels
Channel positions : Front: L C R, Side: L R, LFE
Sampling rate : 48.0 kHz
Frame rate : 31.250 FPS (1536 spf)
Compression mode : Lossy
Stream size : 545 MiB (7%)
Title : LE-Production
Language : Russian
Default : No
Forced : No
Audio #4
ID : 5
Format : AC-3
Format/Info : Audio Coding 3
Mode extension : CM (complete main)
Format settings, Endianness : Big
Codec ID : A_AC3
Duration : 1 h 59 min
Bit rate mode : Constant
Bit rate : 192 kb/s
Channel(s) : 2 channels
Channel positions : Front: L R
Sampling rate : 48.0 kHz
Frame rate : 31.250 FPS (1536 spf)
Compression mode : Lossy
Stream size : 164 MiB (2%)
Title : ARRU
Language : Russian
Default : No
Forced : No
Audio #5
ID : 6
Format : AC-3
Format/Info : Audio Coding 3
Mode extension : CM (complete main)
Format settings, Endianness : Big
Codec ID : A_AC3
Duration : 1 h 59 min
Bit rate mode : Constant
Bit rate : 192 kb/s
Channel(s) : 2 channels
Channel positions : Front: L R
Sampling rate : 48.0 kHz
Frame rate : 31.250 FPS (1536 spf)
Compression mode : Lossy
Stream size : 164 MiB (2%)
Title : ANIvoice
Language : Russian
Default : No
Forced : No
Audio #6
ID : 7
Format : AC-3
Format/Info : Audio Coding 3
Mode extension : CM (complete main)
Format settings, Endianness : Big
Codec ID : A_AC3
Duration : 1 h 59 min
Bit rate mode : Constant
Bit rate : 640 kb/s
Channel(s) : 6 channels
Channel positions : Front: L C R, Side: L R, LFE
Sampling rate : 48.0 kHz
Frame rate : 31.250 FPS (1536 spf)
Compression mode : Lossy
Stream size : 545 MiB (7%)
Title : Jpn
Language : Japanese
Default : No
Forced : No
Text
ID : 8
Format : UTF-8
Codec ID : S_TEXT/UTF8
Codec ID/Info : UTF-8 Plain Text
Title : Rus full [zafhos]
Language : Russian
Default : No
Forced : No
Menu
00:00:00.000 : :Chapter 1
00:02:45.165 : :Chapter 2
00:07:00.420 : :Chapter 3
00:10:28.002 : :Chapter 4
00:15:40.648 : :Chapter 5
00:19:58.739 : :Chapter 6
00:29:19.841 : :Chapter 7
00:34:11.966 : :Chapter 8
00:38:05.783 : :Chapter 9
00:44:45.391 : :Chapter 10
00:49:55.409 : :Chapter 11
00:55:01.381 : :Chapter 12
01:02:33.833 : :Chapter 13
01:08:42.535 : :Chapter 14
01:14:48.233 : :Chapter 15
01:16:45.892 : :Chapter 16
01:23:46.938 : :Chapter 17
01:27:29.244 : :Chapter 18
01:33:16.340 : :Chapter 19
01:38:40.456 : :Chapter 20
01:42:22.261 : :Chapter 21
01:48:53.193 : :Chapter 22
01:54:02.836 : :Chapter 23




   Похожие торренты   Торрент   Размер 
В этой теме нет новых непрочитанных сообщений. Дитя чудовища / Bakemono no Ko / The Boy and the Beast (2015) BDRip 720p | AniDub

1099 | 140

2.45 ГБ

В этой теме нет новых непрочитанных сообщений. Дитя чудовища / Bakemono no Ko / The Boy and the Beast (2015) BDRip 720p HEVC Hi10p | AniDub

222 | 20

1.74 ГБ

В этой теме нет новых непрочитанных сообщений. Дитя чудовища / Bakemono no Ko (2015) BDRip 1080p HEVC Hi10p | AniDub

120 | 9

4.9 ГБ

В этой теме нет новых непрочитанных сообщений. Дитя чудовища / Bakemono no Ko (2015) BDRip-AVC | AniDub

138 | 5

1.18 ГБ

В этой теме нет новых непрочитанных сообщений. Дитя чудовища / Bakemono no Ko (2015) BDRip-AVC | AniDub

123 | 4

1.18 ГБ

В этой теме нет новых непрочитанных сообщений. Дитя Чудовища / Bakemono no ko (2015) BDRip 720p | AniFilm

36 | 0

1.88 ГБ

В этой теме нет новых непрочитанных сообщений. Дитя чудовища / Bakemono no Ko (2015) BDRip 720p | AniDub

111 | 14

2.4 ГБ




Вы не можете начинать темы
Вы не можете отвечать на сообщения
Вы не можете редактировать свои сообщения
Вы не можете удалять свои сообщения
Вы не можете добавлять вложения

Перейти:  
Для Мосгорсуда, Роскомнадзора и рекламодателей: mosgorsud-torrent[собачка]yandex.ru
 Вход
ppkBB3cker v.2 © 2008-2014 @ PPK
[ Time : 0.038s | 16 Queries | GZIP : Off ]

Торрент трекер RUTOR.IN, Не можете зайти на rutor.org? Какой новый адрес рутор? Какое зеркало рутор? Не работает rutor.org и зеркала? Тогда наш торрент специально для вас. Rutor.in неофициальное зеркало rutor. В случае если у Вас заблокирован rutor или вдруг Вы не можете на него зайти, то Вы без труда сможете скачать бесплатно и без рекламы последние новинки кино, игр, сериалов и прочего у нас, на Rutor.in. Не нужно использовать прокси, чтобы зайти на рутор, достаточно воспользоваться нашим ресурсом. Все новые фильмы, игры, сериалы, книги и музыка за 2013 и 2014 годы через торрент бесплатно. Скачивайте фильмы в хорошем качестве, игры для пк, xbox, playstation без регистрации. У нас вы найдете новые Зарубежные сериалы и Русские сериалы 2013, 2014, 2015 годов. Оставайтесь с нами, качайте любимые фильмы, игры, сериалы, книги и музыку.
cron