img image001 image001 image001 image001 image001 image001 image001 image001 image001 image001 image001 image001 image001 image001 image001

Planets Sun Sun Sun
Статистика раздачи
Автор: PriZraK | Размер: 2.57 ГБ | Добавлен: 07 ноя 2016
Раздают: 26    Качают: 11
Скачать торрент
Скачать торрент
Описание торрента

СообщениеДобавлено: 07 ноя 2016 


Информация о фильме
Название: Скитальцы
Оригинальное название: Drifters
Год выхода: 2016
Жанр: приключения, комедия, фэнтези, история
Режиссер: Судзуки Кэнъити
Художник: Татэфудзи Кэнъити
В ролях: Накамура Юйти, Утида Наоя, Сайга Мицуки, Судзуки Тацухиса, Аояма Ютака, Янака Хироси, Оно Дайсукэ, Такаги Ватару, Сакурай Такахиро, Кокидо Сихо, Нисида Масакадзу, Кусуноки Тайтэн, Минагава Дзюнко, Номура Кэндзи, Китаниси Дзюнко, Танака Масахико, Ясумото Хироки, Исида Акира, Миямото Мицуру, Ито Канаэ
О фильме:
Тоёхиса Шимазу — легендарный самурай эпохи Сэнгоку — принимает участие в великой Битве при Сэкигахаре. Ему удается смертельно ранить вражеского полководца по имени Наомасу Ии, однако сам он также оказывается тяжело увечен в этом бою. Искалеченный и истекающий кровью, Тоёхиса с трудом пытается уйти с поля боя и вдруг неизвестным образом попадает в длинный коридор из дверей, где его ожидает человек в очках. Этого человека зовут Мурасаки. Он великодушно направляет едва живого Тоёхису к ближайшей двери, после чего раненный самурай теряет сознание и приходит в себя уже в другом месте... Нет, не на небесах, как можно было подумать, а в параллельном мире! Однако не успевает Симадзу отойти от шока перемещения, как его втягивают в другие, не менее Великие, чем на Земле, войны. Здесь ему предстоит встретиться с подобными ему легендарными воинами, которым также представился шанс невольно переместиться в этот мир, и стать частью группировки, известной как «Скитальцы».
World Art | MAL
Страна: Япония
Студия: Polygon Pictures
Продолжительность: 00:24:00
Язык: Русский, Японский
Перевод: Любительский (многоголосый, закадровый)
Файл
Качество: HDTVRip
Формат: MKV
Видео кодек: H.264
Аудио кодек: AAC
Видео: 1280x720, 23.976 fps, 3800 kbps
Аудио RUS: 48.0 kHz, AAC, 2 ch, 192 kbps - SHIZA Project
Аудио RUS: 48.0 kHz, AAC, 2 ch, 192 kbps - AniDub
Аудио JAP: 48.0 kHz, AAC, 2 ch, 192 kbps
Субтитры: русские (встроенные надписи, ASS), русские (встроенные полный перевод, ASS) - AleX_MytH & hoshizora & Zottig
Релиз от:
Озвучивание: NIKITOS, Snowly, NoName, nDrOiDze, Тань-УХ-а, Лизавета,
Перевод: VanTuz
Тайминг и работа со звуком: Gigantic Guyver
Релиз от:
Озвучивание: Студийная банда AD, 9й Неизвестный, JAM, BalFor, Давид Петросян, Demetra, Esther, Торгиль, Гамлетка Цезаревна, Влад Дуров, Cuba77
Перевод: Саюри
Тайминг и работа со звуком: Павел П.

01. Боевая песнь
02. Поступь
03. Наша армия - Вылазка на рассвете
04. Живое сердце
05. Возвращение любви
General
Format : Matroska
Format version : Version 4 / Version 2
File size : 755 MiB
Duration : 23 min
Overall bit rate : 4 397 kb/s
Encoded date : UTC 2016-11-06 06:22:04
Writing application : mkvmerge v8.3.0 ('Over the Horizon') 64bit
Writing library : libebml v1.3.1 + libmatroska v1.4.2
Video
ID : 1
Format : AVC
Format/Info : Advanced Video Codec
Format profile : High@L4.1
Format settings, CABAC : Yes
Format settings, ReFrames : 4 frames
Codec ID : V_MPEG4/ISO/AVC
Duration : 23 min
Bit rate : 3 820 kb/s
Width : 1 280 pixels
Height : 720 pixels
Display aspect ratio : 16:9
Frame rate mode : Constant
Frame rate : 23.976 (24000/1001) FPS
Color space : YUV
Chroma subsampling : 4:2:0
Bit depth : 8 bits
Scan type : Progressive
Bits/(Pixel*Frame) : 0.173
Stream size : 656 MiB (87%)
Writing library : x264 core 129 r2245+729M 1a52e03
Encoding settings : cabac=1 / ref=4 / deblock=1:1:-1 / analyse=0x3:0x113 / me=umh / subme=9 / psy=1 / fade_compensate=0.00 / psy_rd=1.00:0.00 / mixed_ref=1 / me_range=24 / chroma_me=1 / trellis=2 / 8x8dct=1 / cqm=0 / deadzone=21,11 / fast_pskip=1 / chroma_qp_offset=-2 / threads=8 / lookahead_threads=1 / sliced_threads=0 / nr=0 / decimate=1 / interlaced=0 / bluray_compat=0 / constrained_intra=0 / fgo=0 / bframes=9 / b_pyramid=2 / b_adapt=2 / b_bias=0 / direct=1 / weightb=1 / open_gop=0 / weightp=2 / keyint=240 / keyint_min=24 / scenecut=40 / intra_refresh=0 / rc=crf / mbtree=0 / crf=18.0 / qcomp=0.72 / qpmin=0 / qpmax=69 / qpstep=4 / ip_ratio=1.40 / pb_ratio=1.30 / aq=1:0.85
Language : Japanese
Default : Yes
Forced : No
Color range : Limited
Color primaries : BT.709
Transfer characteristics : BT.709
Matrix coefficients : BT.709
Audio #1
ID : 2
Format : AAC
Format/Info : Advanced Audio Codec
Format profile : LC
Codec ID : A_AAC
Duration : 23 min
Bit rate : 192 kb/s
Channel(s) : 2 channels
Channel positions : Front: L R
Sampling rate : 48.0 kHz
Frame rate : 46.875 FPS (1024 spf)
Compression mode : Lossy
Stream size : 33.0 MiB (4%)
Title : SHIZA Project
Language : Russian
Default : Yes
Forced : No
Audio #2
ID : 3
Format : AAC
Format/Info : Advanced Audio Codec
Format profile : LC
Codec ID : A_AAC
Duration : 23 min
Bit rate : 192 kb/s
Channel(s) : 2 channels
Channel positions : Front: L R
Sampling rate : 48.0 kHz
Frame rate : 46.875 FPS (1024 spf)
Compression mode : Lossy
Stream size : 32.5 MiB (4%)
Title : AniDub
Language : Russian
Default : No
Forced : No
Audio #3
ID : 4
Format : AAC
Format/Info : Advanced Audio Codec
Format profile : LC
Codec ID : A_AAC
Duration : 23 min
Bit rate : 192 kb/s
Channel(s) : 2 channels
Channel positions : Front: L R
Sampling rate : 48.0 kHz
Frame rate : 46.875 FPS (1024 spf)
Compression mode : Lossy
Stream size : 33.0 MiB (4%)
Title : Original
Language : Japanese
Default : No
Forced : No
Text #1
ID : 5
Format : ASS
Codec ID : S_TEXT/ASS
Codec ID/Info : Advanced Sub Station Alpha
Duration : 21 min
Bit rate : 6 b/s
Count of elements : 16
Compression mode : Lossless
Stream size : 1.03 KiB (0%)
Title : Надписи
Language : Russian
Default : Yes
Forced : No
Text #2
ID : 6
Format : ASS
Codec ID : S_TEXT/ASS
Codec ID/Info : Advanced Sub Station Alpha
Duration : 23 min
Bit rate : 129 b/s
Count of elements : 294
Compression mode : Lossless
Stream size : 22.5 KiB (0%)
Title : Полные субтитры
Language : Russian
Default : No
Forced : No
Когда раздача ведётся путём добавления новых серий, при каждом добавлении создётся новый торрент. Чтобы начать докачку новой серии, пользователям необходимо сделать следующее:
(1) остановить скачивание,
(2) удалить старый торрент у себя из клиента (старые серии удалять не надо),
(3) скачать новый торрент и запустить его у себя в клиенте вместо старого, при этом указать клиенту путь в старую папку, куда и должно происходить скачивание новых серий.
Ваш клиент при этом должен произвести хеширование (проверку) старой папки (если не производит сам - помогите ему сделать это), и будет докачивать только те серии, которых у вас ещё нет. Старые серии при этом не удаляются, а продолжают раздаваться!
Eсли вы уже удалили старые серии, то предотвратить повторную закачку старых серий можно, отжав галочку в соответсвующих местах при запуске нового торрента. По возможности, желательно не удалять старые серии как можно дольше, чтобы релизёр не столько продолжал раздавать старые серии, а смог сконцентрироваться на новых.



   Похожие торренты   Торрент   Размер 
В этой теме нет новых непрочитанных сообщений. 91 день / 91 Days [01-04 из 12] (2016) HDTVRip 720p | AniDub, SHIZA Project

11 | 2

2.61 ГБ

В этой теме нет новых непрочитанных сообщений. Полулюди / Ajin [01-09 из 12] (2016) HDTVRip 720p | AniDub, SHIZA Project

14 | 1

6.55 ГБ

В этой теме нет новых непрочитанных сообщений. Полулюди / Ajin [01-09 из 12] (2016) HDTVRip 720p | AniDub, SHIZA Project

382 | 76

7.19 ГБ

В этой теме нет новых непрочитанных сообщений. Полулюди / Ajin [01 из 12] (2016) HDTVRip 720p | AniDub, SHIZA Project

64 | 8

560.88 МБ

В этой теме нет новых непрочитанных сообщений. Полулюди / Ajin [01-09 из 12] (2016) HDTVRip 720p | AniDub, SHIZA Project

34 | 22

4.89 ГБ

В этой теме нет новых непрочитанных сообщений. Полулюди / Ajin [01-03 из 12] (2016) HDTVRip 720p | AniDub, SHIZA Project

30 | 13

1.58 ГБ

В этой теме нет новых непрочитанных сообщений. Полулюди / Ajin [01-02 из 12] (2016) HDTVRip 720p | AniDub, SHIZA Project

48 | 8

1.08 ГБ




Вы не можете начинать темы
Вы не можете отвечать на сообщения
Вы не можете редактировать свои сообщения
Вы не можете удалять свои сообщения
Вы не можете добавлять вложения

Перейти:  
Для Мосгорсуда, Роскомнадзора и рекламодателей: mosgorsud-torrent[собачка]yandex.ru
 Вход
ppkBB3cker v.2 © 2008-2014 @ PPK
[ Time : 0.039s | 14 Queries | GZIP : Off ]

Торрент трекер RUTOR.IN, Не можете зайти на rutor.org? Какой новый адрес рутор? Какое зеркало рутор? Не работает rutor.org и зеркала? Тогда наш торрент специально для вас. Rutor.in неофициальное зеркало rutor. В случае если у Вас заблокирован rutor или вдруг Вы не можете на него зайти, то Вы без труда сможете скачать бесплатно и без рекламы последние новинки кино, игр, сериалов и прочего у нас, на Rutor.in. Не нужно использовать прокси, чтобы зайти на рутор, достаточно воспользоваться нашим ресурсом. Все новые фильмы, игры, сериалы, книги и музыка за 2013 и 2014 годы через торрент бесплатно. Скачивайте фильмы в хорошем качестве, игры для пк, xbox, playstation без регистрации. У нас вы найдете новые Зарубежные сериалы и Русские сериалы 2013, 2014, 2015 годов. Оставайтесь с нами, качайте любимые фильмы, игры, сериалы, книги и музыку.