img image001 image001 image001 image001 image001 image001 image001 image001 image001 image001 image001 image001 image001 image001 image001 image001
Planets Sun Sun Sun
Статистика раздачи
Автор: PriZraK | Размер: 2.77 ГБ | Добавлен: 15 фев 2017
Раздают: 5    Качают: 0
Скачать торрент
Скачать торрент
Описание торрента

СообщениеДобавлено: 15 фев 2017 

Босоногий Гэн / Hadashi no Gen (1983) HDTVRip [720p] (Original Color) от SDIncorporation | Sub

Информация о фильме
Русское название: Босоногий Гэн
Оригинальное название: Hadashi no Gen
Страна: Япония
Студия: Madhouse

Год выпуска: 1983
Жанр: Драма, История, Война
Перевод: Оригинал
Режиссер: Мори Масаки
Работа над релизом: Nod33Eset(retvil)
StreetDespair
Jonny_NAT
69SexyMan
Исходник: ССTV 2016 Год
О фильме:
Босоногий Ген — аниме-фильм по одноимённой манге Кэйдзи Накадзавы. Манга, выпускавшаяся в 1973—74 гг., повествовала о жизни 6-летнего мальчика Гена и его семьи во время и после атомной бомбардировки Хиросимы 6 августа 1945 года (сюжет полон автобиографических параллелей с жизнью самого Накадзавы, бывшего свидетелем бомбардировки в Хиросиме).
Продолжительность: 01:23:00
Качество видео: HDTVRip-720p (Original Color)
Видеокодек: AVC|H.264
Формат: MKV
Битрейт видео: ~4500 Kbps
Размер кадра: 960x720
Аудиокодек: AC3
Битрейт аудио: 320 kbps
Аудио #1: Японский (48 kHz, AC3 Dolby Digital, 2 channels, ~320 kbps) — Оригинальный [Japanese]
Субтитры #1: Russian Subtitles
General
Unique ID : 244501122827537753428929506088092654032 (0xB7F134114CF1BC9E9C5E26E9262359D0)
Complete name : Hadashi.no.Gen.HDTVRip.720p.LQ.Original.Color.Japanese.SDIncorporation.mkv
Format : Matroska
Format version : Version 4 / Version 2
File size : 2.77 GiB
Duration : 1 h 23 min
Overall bit rate mode : Variable
Overall bit rate : 4 759 kb/s
Movie name : Hadashi no Gen [HDTVRip 720p-LQ] (Original Color) © SDIncorporation
Encoded date : UTC 2017-01-30 19:26:28
Writing application : mkvmerge v9.8.0 ('Kuglblids') 64bit
Writing library : libebml v1.3.4 + libmatroska v1.4.5
Cover : Yes
Attachments : cover.png
Video
ID : 1
Format : AVC
Format/Info : Advanced Video Codec
Format profile : Main@L3.1
Format settings, CABAC : Yes
Format settings, ReFrames : 3 frames
Codec ID : V_MPEG4/ISO/AVC
Duration : 1 h 23 min
Bit rate mode : Variable
Bit rate : 4 423 kb/s
Maximum bit rate : 16.0 Mb/s
Width : 960 pixels
Height : 720 pixels
Display aspect ratio : 4:3
Original display aspect rat : 16:9
Frame rate mode : Variable
Frame rate : 23.976 (23976/1000) FPS
Original frame rate : 25.000 FPS
Standard : NTSC
Color space : YUV
Chroma subsampling : 4:2:0
Bit depth : 8 bits
Scan type : Progressive
Bits/(Pixel*Frame) : 0.267
Stream size : 2.58 GiB (93%)
Title : Video
Default : Yes
Forced : No
Color range : Limited
Audio
ID : 2
Format : AC-3
Format/Info : Audio Coding 3
Mode extension : CM (complete main)
Format settings, Endianness : Big
Codec ID : A_AC3
Duration : 1 h 23 min
Bit rate mode : Constant
Bit rate : 320 kb/s
Channel(s) : 2 channels
Channel positions : Front: L R
Sampling rate : 48.0 kHz
Frame rate : 31.250 FPS (1536 spf)
Bit depth : 16 bits
Compression mode : Lossy
Stream size : 191 MiB (7%)
Title : Japanese
Language : Japanese
Default : Yes
Forced : No
Text
ID : 3
Format : UTF-8
Codec ID : S_TEXT/UTF8
Codec ID/Info : UTF-8 Plain Text
Duration : 1 h 19 min
Bit rate : 88 b/s
Count of elements : 1028
Stream size : 51.4 KiB (0%)
Title : Russian Subtitles
Language : Russian
Default : Yes
Forced : No
Menu
00:00:00.000 : :Chapter 1
00:02:56.267 : :Chapter 2
00:04:29.068 : :Chapter 3
00:10:34.268 : :Chapter 4
00:16:56.335 : :Chapter 5
00:28:22.468 : :Chapter 6
00:34:39.802 : :Chapter 7
00:40:49.636 : :Chapter 8
00:46:40.237 : :Chapter 9
00:58:17.038 : :Chapter 10
01:04:17.305 : :Chapter 11
01:12:03.605 : :Chapter 12
01:19:22.638 : :Chapter 13
01:23:15.972 : :Chapter 14
01:23:16.472 : :Chapter 15
01:23:16.972 : :Chapter 16






Время раздачи: С 8:00 до 22:00
Релиз от: ©SDIncorporation



   Похожие торренты   Торрент   Размер 
В этой теме нет новых непрочитанных сообщений. Босоногий Гэн 2 / Hadashi no Gen 2 (1986) HDTVRip-AVC 720p от SDIncorporation | Sub

10 | 0

2.83 ГБ

В этой теме нет новых непрочитанных сообщений. Босоногий Гэн / Hadashi no Gen (1983) DVDRip-AVC | L1

254 | 10

3.46 ГБ

В этой теме нет новых непрочитанных сообщений. Босоногий Гэн / Hadashi no Gen (1983) WEB-DLRip | AniPlay

19 | 1

995.24 МБ

В этой теме нет новых непрочитанных сообщений. Босоногий Гэн / Barefoot Gen / Hadashi no Gen (1983) DVDRip-AVC

68 | 7

971.66 МБ

В этой теме нет новых непрочитанных сообщений. Голго 13 Профи / Golgo 13 The Professional (1983) HDTVRip 720p от SDIncorporation | Sub

3 | 4

4.46 ГБ

В этой теме нет новых непрочитанных сообщений. Голго 13 Профи / Golgo 13 The Professional (1983) HDTVRip 1080p от SDIncorporation | Sub

1 | 1

9.49 ГБ

В этой теме нет новых непрочитанных сообщений. Хармагеддон / Harmagedon (1983) BDRip 720p от SDIncorporation | MC Entertainment

3 | 4

6.83 ГБ




Вы не можете начинать темы
Вы не можете отвечать на сообщения
Вы не можете редактировать свои сообщения
Вы не можете удалять свои сообщения
Вы не можете добавлять вложения

Перейти:  
Для Мосгорсуда, Роскомнадзора и рекламодателей: mosgorsud-torrent[собачка]yandex.ru
 Вход
ppkBB3cker v.2 © 2008-2014 @ PPK
[ Time : 0.050s | 17 Queries | GZIP : Off ]

cron