img image001 image001 image001 image001 image001 image001 image001 image001 image001 image001 image001 image001 image001 image001 image001 image001

Planets Sun Sun Sun
Статистика раздачи
Автор: Nickolas3434 | Размер: 697.2 МБ | Добавлен: 17 мар 2017
Раздают: 10    Качают: 0
Скачать торрент
Скачать торрент
Описание торрента

СообщениеДобавлено: 17 мар 2017 

Информация о фильме
Название: Косукэ и Рикимару: Дракон Острова Компэй
Оригинальное название: Kosuke-sama Rikimaru-sama: Konpeitou no Ryuu / Kosuke and Rikimaru: Dragon of Konpei Island
Год выхода: 1988
Жанр: приключения, комедия, фэнтези
Автор оригинала: Торияма Акира
Режиссер: Асида Тоё
В ролях: Ота Такако, Мацуока Ёко, Чикао О ц у к а, Эрико Чихара, Хаджиме Косеки, Хироо Оикава, Кумико Нишихара, Катсуми Судзуки, Казуки Яо, Сукекиё Камеяма, Юи Шимака
О фильме:
Коскэ-сама и Рикимару-сама, двое молодых стражей острова Компэй, дома последнего дракона. Их работа присматривать за драконом, на имя Почи на лбу которого есть блестящий синий камень. Но после появления Танукикодзи Сакурако, профессора из Токио, которая изучает драконов. В это же время военные прибывают на остров с целью заполучить камень со лба дракона. Противостояние за последнего дракона острова Компэй началась.
Страна: Япония
Студия: J.C. Staff, Studio Live
Продолжительность: 00:47:18
Перевод: Любительский одноголосный закадровый [L1]
Файл
Кодек: H264/AVC
Качество: VHSRip-AVC | L1
Видео: 720x480 (анаморф @ 720x540), 8 бит, 1843 кбит/сек, 23.976 кадра/сек
Звук:
OGG Vorbis, 108 кбит/сек, 48.0 кГц, 2 канала Язык Русский (в составе контейнера) ; Озвучка мужск. одноголосная: micola777 ; Тайминг: micola777; Работа со звуком: micola777
OGG Vorbis, 108 кбит/сек, 48.0 кГц, 2 канала Язык Японский
Субтитры:
ASS, встроенные(отключаемые) Язык субтитров русский ; Перевод: uncut
SRT, встроенные(отключаемые) Язык субтитров украинский ; Перевод: Thrary
ASS, встроенные(отключаемые) Язык субтитров английский ; Перевод: MW
Общее
Уникальный идентификатор : 245850181581720928257663863408008754102 (0xB8F505CCA930FFEEB6C2FA953D21F3B6)
Полное имя : Kosuke_and_Rikimaru_-_The_Dragon_of_Konpei_Island_[OVA]_[RUS_JAP_SUB]_[VHSRip_720x480_ogg]_[micola777].mkv
Формат : Matroska
Версия формата : Version 2
Размер файла : 697 Мбайт
Продолжительность : 47 м. 17 с.
Режим общего битрейта : Переменный
Общий поток : 2061 Кбит/сек
Дата кодирования : UTC 2017-03-10 14:47:21
Программа кодирования : mkvmerge v3.3.0 ('Language') built on Mar 24 2010 14:59:24
Библиотека кодирования : libebml v0.8.0 + libmatroska v0.9.0
Видео
Идентификатор : 1
Формат : AVC
Формат/Информация : Advanced Video Codec
Профиль формата : High@L5.1
Параметр CABAC формата : Да
Параметр ReFrames формата : 4 кадра
Идентификатор кодека : V_MPEG4/ISO/AVC
Продолжительность : 47 м. 17 с.
Битрейт : 1843 Кбит/сек
Ширина : 720 пикселей
Высота : 480 пикселей
Соотношение сторон : 4:3
Соотношение сторон в оригинале : 3:2
Режим частоты кадров : Постоянный
Частота кадров : 23,976 кадра/сек
Цветовое пространство : YUV
Субдискретизация насыщенности : 4:2:0
Битовая глубина : 8 бит
Тип развёртки : Прогрессивная
Бит/(Пиксели*Кадры) : 0.222
Размер потока : 597 Мбайт (86%)
Заголовок : Japanese
Библиотека кодирования : x264 core 56 svn-667C
Настройки программы : cabac=1 / ref=1 / deblock=1:0:0 / analyse=0x3:0x133 / me=hex / subme=6 / brdo=1 / mixed_ref=0 / me_range=16 / chroma_me=1 / trellis=1 / 8x8dct=1 / cqm=0 / deadzone=21,11 / chroma_qp_offset=0 / threads=1 / nr=0 / decimate=1 / mbaff=0 / bframes=3 / b_pyramid=1 / b_adapt=1 / b_bias=0 / direct=1 / wpredb=1 / bime=1 / keyint=250 / keyint_min=25 / scenecut=40 / rc=2pass / bitrate=1843 / ratetol=1.0 / rceq='blurCplx^(1-qComp)' / qcomp=0.60 / qpmin=10 / qpmax=51 / qpstep=4 / cplxblur=20.0 / qblur=0.5 / ip_ratio=1.40 / pb_ratio=1.45
Язык : Japanese
Default : Да
Forced : Да
Аудио #1
Идентификатор : 2
Формат : Vorbis
Параметр Floor формата : 1
Идентификатор кодека : A_VORBIS
Продолжительность : 47 м. 17 с.
Вид битрейта : Переменный
Битрейт : 128 Кбит/сек
Каналы : 2 канала
Частота : 48,0 КГц
Метод сжатия : С потерями
Задержка видео : -125 мс.
Размер потока : 43,3 Мбайт (6%)
Заголовок : [micola777]
Библиотека кодирования : libVorbis (Schaufenugget) (20101101 (Schaufenugget))
Язык : Russian
Default : Да
Forced : Да
Аудио #2
Идентификатор : 3
Формат : Vorbis
Параметр Floor формата : 1
Идентификатор кодека : A_VORBIS
Продолжительность : 47 м. 17 с.
Вид битрейта : Переменный
Битрейт : 128 Кбит/сек
Каналы : 2 канала
Частота : 48,0 КГц
Метод сжатия : С потерями
Задержка видео : -108 мс.
Размер потока : 43,3 Мбайт (6%)
Заголовок : Japanese
Программа кодирования : Made with BeSweet v1.5b31
Библиотека кодирования : libVorbis 1.0 (UTC 2002-07-17)
Язык : Japanese
Default : Нет
Forced : Нет
Encoded_Application/Url : http://DSPguru.doom9.org
Текст #1
Идентификатор : 4
Формат : ASS
Идентификатор кодека : S_TEXT/ASS
Идентификатор кодека/Информация : Advanced Sub Station Alpha
Метод сжатия : Без потерь
Заголовок : Uncut
Язык : Russian
Default : Нет
Forced : Нет
Текст #2
Идентификатор : 5
Формат : UTF-8
Идентификатор кодека : S_TEXT/UTF8
Идентификатор кодека/Информация : UTF-8 Plain Text
Заголовок : [Thrary]
Язык : Ukrainian
Default : Нет
Forced : Нет
Текст #3
Идентификатор : 6
Формат : ASS
Идентификатор кодека : S_TEXT/ASS
Идентификатор кодека/Информация : Advanced Sub Station Alpha
Метод сжатия : Без потерь
Заголовок : English
Язык : English
Default : Нет
Forced : Нет
File: Kosuke_and_Rikimaru_-_The_Dragon_of_Konpei_Island_[OVA]_[RUS_JAP_SUB]_[VHSRip_720x480_ogg]_[micola777].mkv
Duration: 00:47:18 (2837.63)
Track #1: default video (Japanese)
lang: jpn (2)
codc: V_MPEG4/ISO/AVC -> H264/AVC (22)
reso: 720x480 (720x540) -> Unknown (aka not common) anamorphic
fram: 23.976 fps
rate: 1843 kbps (1843.02)
dura: 00:47:17 (2837.46)
size: 623.41 MB (653688462)
Track #2: default audio ([micola777])
lang: rus -> Russian (15)
codc: A_VORBIS -> Ogg Vorbis (8)
chan: 2 -> Stereo
samp: 48000 Hz
rate: 107 kbps (106.96)
dura: 00:47:17 (2837.34)
size: 36.18 MB (37934784)
Track #3: audio (Japanese)
lang: jpn -> Japanese (2)
codc: A_VORBIS -> Ogg Vorbis (8)
chan: 2 -> Stereo
samp: 48000 Hz
rate: 108 kbps (107.99)
dura: 00:47:17 (2837.32)
size: 36.53 MB (38300365)
Track #4: subtitles (Uncut)
lang: rus -> Russian (15)
type: S_TEXT/ASS -> ASS (5)
size: 34.23 KB (35056)
Track #5: subtitles ([Thrary])
lang: ukr -> Unknown (1)
type: S_TEXT/UTF8 -> SRT (3)
size: 21.13 KB (21636)
Track #6: subtitles (English)
lang: eng -> English (4)
type: S_TEXT/ASS -> ASS (5)
size: 29.21 KB (29911)
Sizes: (check sanity)
disk: 697.20 MB (731069520)
trac: 696.19 MB (730010214) [based on track size]
bitr: 696.11 MB (729927024) [based on bitrate]
tdif: 1.01 MB (1059306) 0.14%
bdif: 1.09 MB (1142495) 0.15%



   Похожие торренты   Торрент   Размер 
В этой теме нет новых непрочитанных сообщений. VA - FabricLive 83 mixed by Logan Sama (2015) MP3

15 | 0

160.89 МБ

В этой теме нет новых непрочитанных сообщений. Летние войны / Samâ uôzu (2009) BDRip 720p | Лицензия

75 | 14

2.19 ГБ

В этой теме нет новых непрочитанных сообщений. Сатана на подработке! / Hataraku Maou-sama! [TV] [01-13 из 13] (2013) BDRip 720p | L2

120 | 63

7.14 ГБ

В этой теме нет новых непрочитанных сообщений. Cатана на подработке! / Hataraku Maou-sama! [01-03 из 12] (2013) HDTVRip 720p | L

3 | 0

1.02 ГБ

В этой теме нет новых непрочитанных сообщений. Моё королевство ~Короли моей любви~ / Ore-sama Kingdom [OVA] [01-09 из 14] (2010) DнVDRip | AniFilm

16 | 9

1 ГБ

В этой теме нет новых непрочитанных сообщений. Очень приятно, Бог [ТВ-2] / Kami-sama Hajimemashita 2 [TV] [01-12 из 12] (2015) HDTVRip 720p | L2 | CactusTeam

191 | 39

4.2 ГБ

В этой теме нет новых непрочитанных сообщений. Моё королевство ~Короли моей любви~ / Ore-sama Kingdom [OVA] [01-10 из 14] (2010) DнVDRip | AniFilm

11 | 13

1.15 ГБ




Вы не можете начинать темы
Вы не можете отвечать на сообщения
Вы не можете редактировать свои сообщения
Вы не можете удалять свои сообщения
Вы не можете добавлять вложения

Перейти:  
 Вход
ppkBB3cker v.2 © 2008-2014 @ PPK
[ Time : 0.028s | 18 Queries | GZIP : Off ]

cron