img image001 image001 image001 image001 image001 image001 image001 image001 image001 image001 image001 image001 image001 image001 image001

Planets Sun Sun Sun
Статистика раздачи
Автор: Nickolas3434 | Размер: 12.63 ГБ | Добавлен: 17 мар 2017
Раздают: 4    Качают: 1
Скачать торрент
Скачать торрент
Описание торрента

СообщениеДобавлено: 17 мар 2017 

Информация о фильме
Название: Гонщик Спиди
Оригинальное название: Speed Racer / Mach Go Go Go
Год выхода: 1967
Жанр: приключения, спорт
Автор оригинала: Ёсида Тацуо
Режиссер: Сасагава Хироси
В ролях: Мори Кацудзи, Омия Тэйдзи, Киномия Рёко, Хори Дзюнко, Отакэ Хироси, Номура Митико, Томияма Кэй, Айкава Кинъя, Уцуми Кэндзи
О фильме:
Го Мифунэ (более известный русскому зрителю, как Спиди) – сын талантливого авто-конструктора и непревзойденный гонщик. Юный Го мечтает стать профессионалом и выиграть мировое золото в спортивных гонках на отцовском шедевре – супер-машине Mach 5. Для этого ему придется совершить массу подвигов, как на трассе, так и вне ее, победить множество честных и вероломных соперников, показать себя преданным сыном, хорошим братом и надежным другом...
Дополнительно:
Первый спортивный сериал в истории аниме.

Страна: Япония
Студия: Tatsunoko
Продолжительность: 20:48:00
Перевод: Дублированный
Файл
Кодек: XVID
Качество: VHSRip Автор рипа : bma2004
Видео: 640x480, 8 бит, ~ 1421кбит/с, 25,000 кадров/сек
Звук: MP3, 12-48 кбит/сек, 24,0 кГц 2 канала Язык Русский (в составе контейнера): дубляж
01. Великий план, часть первая.avi
02. Великий план, часть вторая.avi
03. Вызов гонщика в маске, часть первая.avi
04. Вызов гонщика в маске, часть вторая.avi
05. Секретный мотор, часть первая.avi
06. Секретный мотор, часть вторая.avi
07. Гонки против гигантской машины, часть первая.avi
08. Гонки против гигантской машины, часть вторая.avi
09. Самые опасные гонки, часть первая.avi
10. Самые опасные гонки, часть вторая.avi
11. Самые опасные гонки, часть третья.avi
12. Гонка-реванш, часть первая.avi
13. Гонка-реванш, часть вторая.avi
14. Смертельные гонки в пустыне, часть первая.avi
15. Смертельные гонки в пустыне, часть вторая.avi
16. Огненные гонки, часть первая.avi
17. Огненные гонки, часть вторая.avi
18. Бесстрашная акробатка, часть первая.avi
19. Бесстрашная акробатка, часть вторая.avi
20. Самая быстрая машина на земле, часть первая.avi
21. Самая быстрая машина на земле, часть вторая.avi
22. Авто-5 плюс Авто-5, часть первая.avi
23. Авто-5 плюс Авто-5, часть вторая.avi
24. Королевские гонки, часть первая.avi
25. Королевские гонки, часть вторая.avi
26. Ненавижу машины.avi
27. Путешествие в глубь веков, часть первая.avi
28. Путешествие в глубь веков, часть вторая.avi
29. Змеиная дорожка.avi
30. Бегущий человек.avi
31. Банда наёмников, часть первая.avi
32. Банда наёмников, часть вторая.avi
33. Ставка - жизнь.avi
34. Сверхзвуковая машина.avi
35. Катастрофа в джунглях, часть первая.avi
36. Катастрофа в джунглях, часть вторая.avi
37. Ужасный мошенник.avi
38. Секретное вторжение, часть первая.avi
39. Секретное вторжение, часть вторая.avi
40. Человек в маске.avi
41. Разрушитель машин.avi
42. Отчаянный гонщик.avi
43. Опасный свидетель.avi
44. На перегонки с лазерным танком.avi
45. Большой авторестлинг.avi
46. Бандиты на мотоциклах.avi
47. Умная машина.avi
48. Утиль Гран-При.avi
49. Машина в небе.avi
50. Трюковые гонки.avi
51. Кругосветные гонки, часть первая.avi
52. Кругосветные гонки, часть вторая.avi
Общее
Полное имя : 01. Великий план, часть первая.avi
Формат : AVI
Формат/Информация : Audio Video Interleave
Размер файла : 254 Мбайт
Продолжительность : 1 ч. 36 м.
Общий поток : 370 Кбит/сек
Видео
Идентификатор : 0
Формат : MPEG-4 Visual
Идентификатор кодека : XVID
Идентификатор кодека/Подсказка : XviD
Продолжительность : 24 м. 1 с.
Битрейт : 1421 Кбит/сек
Ширина : 640 пикселей
Высота : 480 пикселей
Соотношение сторон : 4:3
Частота кадров : 25,000 кадров/сек
Цветовое пространство : YUV
Субдискретизация насыщенности : 4:2:0
Метод сжатия : С потерями
Бит/(Пиксели*Кадры) : 0.185
Размер потока : 244 Мбайт (96%)
Заголовок : AVI-Stream
Аудио
Идентификатор : 1
Формат : MPEG Audio
Версия формата : Version 2
Профиль формата : Layer 3
Режим : Joint stereo
Расширение режима : Intensity Stereo + MS Stereo
Идентификатор кодека : 55
Идентификатор кодека/Подсказка : MP3
Продолжительность : 1 ч. 36 м.
Продолжительность оригинала : 24 м. 1 с.
Вид битрейта : Постоянный
Битрейт : 48,0 Кбит/сек
Каналы : 2 канала
Частота : 24,0 КГц
Метод сжатия : С потерями
Размер потока : 8,25 Мбайт (3%)
Выравнивание : Соединение по промежуткам
Продолжительность промежутка : 40 мс. (1,00 видеокадр)
Заголовок : Audio Stream
File: 01. Великий план, часть первая.avi
Duration: 01:36:07 (5766.72)
Track #1: video (AVI-Stream)
lang: Unknown (1)
codc: XVID -> XviD (17)
reso: 640x480 -> 4:3
fram: 25.000000 fps
rate: 1421 kbps (1420.887329)
dura: 00:24:02 (1441.680054)
size: 244.20 MB (256058210)
Track #2: audio (Audio Stream)
lang: Unknown (1)
codc: MPEG-2A L3 -> MP3 CBR (5)
chan: 2 -> Stereo
samp: 24000 Hz
rate: 12 kbps (12.00)
dura: 01:36:07 (5766.72)
size: 8.25 MB (8649792)
Sizes: (check sanity)
disk: 254.11 MB (266451968)
trac: 252.45 MB (264708002) [based on track size]
bitr: 246.26 MB (258220547) [based on bitrate]
tdif: 1.66 MB (1743966) 0.65%
bdif: 7.85 MB (8231420) 3.08%





   Похожие торренты   Торрент   Размер 
В этой теме нет новых непрочитанных сообщений. Спиди Гонщик / Speed Racer (2008) BDRip от HQCLUB

9 | 0

2.18 ГБ

В этой теме нет новых непрочитанных сообщений. Спиди Гонщик / Speed Racer (2008) BDRemux 1080p | D

16 | 4

17.85 ГБ

В этой теме нет новых непрочитанных сообщений. Спиди Гонщик / Speed Racer (2008) BDRip-AVC от R.G. HD-Films | 60 fps

29 | 6

4.93 ГБ

В этой теме нет новых непрочитанных сообщений. Спиди Гонщик / Speed Racer (2008) BDRip 1080p от R.G. HD-Films | 60 fps

7 | 2

14.63 ГБ

В этой теме нет новых непрочитанных сообщений. Спиди Гонщик / Speed Racer (2008) BDRip-AVC | дополнительные материалы

0 | 0

1.76 ГБ

В этой теме нет новых непрочитанных сообщений. Спиди Гонщик / Speed Racer (2008) BDRip 720p от R.G. HD-Films | 60 fps

4 | 1

9.1 ГБ

В этой теме нет новых непрочитанных сообщений. Римба Гонщик / Rimba Racer (Мохд. Азизул Хаким М. Хусинь) [2015, Гонки, приключение, комедия., WEBRip]

8 | 0

1.47 ГБ




Вы не можете начинать темы
Вы не можете отвечать на сообщения
Вы не можете редактировать свои сообщения
Вы не можете удалять свои сообщения
Вы не можете добавлять вложения

Перейти:  
cron
 Вход
ppkBB3cker v.2 © 2008-2014 @ PPK
[ Time : 0.032s | 16 Queries | GZIP : Off ]

cron