img image001 image001 image001 image001 image001 image001 image001 image001 image001 image001 image001 image001 image001 image001 image001

Planets Sun Sun Sun

COVID-19 - Последняя информация о коронавирусе на сайте Минздрава


Статистика раздачи
Автор: Nickolas3434 | Размер: 4.17 ГБ | Добавлен: 30 июн 2017
Раздают: 0    Качают: 3
Скачать торрент
Скачать торрент
Описание торрента

СообщениеДобавлено: 30 июн 2017 

Люпен III: Заговор клана Фума (фильм четвертый) / Lupin III: The Fuma Conspiracy / Rupan Sansei: Fuma Ichizoku no Imboo


Перевод: Любительский (одноголосый) [LE-Production]
Субтитры: русские, *ass
Хардсаб: отсутствует

Формат: DVDRip, MKV, H.264, AC3
Страна: Япония
Режиссер: Осэки Масаюки / Ooseki Masayuki / 大関雅幸
Жанр: приключения, комедия, фантастика
Продолжительность: полнометражный фильм, 01:13:25
Год выпуска: 1987
Перевод на русский: Игорь Абдулхаков и Тимиркан Сиюхов
Роли озвучивали: Тимиркан Сиюхов

Студия:

Описание: Друг знаменитого афериста Арсена Люпена Третьего, Гоэмон Исикава, решил жениться. Невестой его становится молодая и симпатичная Мурасаки из клана Суминава. Но прямо во время свадебной церемонии появляются люди в доспехах, с масками на лице. Это агенты древнейшего клана Фума, и они пришли, чтобы получить семейную реликвию клана Суминава - глиняную вазу, передававшуюся из поколения в поколение. Отважный Гоэмон смог уберечь реликвию, но невесту свою не уберёг. Агенты Фума похитили Мурасаки, чтобы позже обменять её на вазу.

Сможет ли Люпен с друзьями вернуть Мурасаки живой и невредимой? Какой секрет скрывает ваза, и зачем клан Фума стремился заполучить её в течении четырёхсот лет?




Видео: 720x544 (16:9) at 23.976 fps, AVC (x264), , ~7875 Kbps avg, 0.839 bit/pixel, 8 bit
Аудио# 1: Rus - 48.0 kHz, AC3, 2 ch, 128 kbps avg | LE-Production
Аудио# 2: Jap - 48.0 kHz, AC3, 2 ch, 128 kbps avg | Оригинал

Общее
Полное имя : Lupin.III.Movie.04.Fuma.Conspiracy.DVDRip.le-production.tv.mkv
Формат : Matroska
Размер файла : 4,17 Гбайт
Продолжительность : 1 ч. 13 м.
Общий поток : 8126 Кбит/сек
Дата кодирования : UTC 2017-05-14 11:37:20
Программа кодирования : mkvmerge v9.1.0 ('Little Earthquakes') 64bit
Библиотека кодирования : libebml v1.3.3 + libmatroska v1.4.4

Видео
Идентификатор : 1
Формат : AVC
Формат/Информация : Advanced Video Codec
Профиль формата :
Параметр CABAC формата : Да
Параметр ReFrames формата : 4 кадры
Идентификатор кодека : V_MPEG4/ISO/AVC
Продолжительность : 1 ч. 13 м.
Битрейт : 7875 Кбит/сек
Ширина : 720 пикс.
Высота : 544 пикс.
Соотношение сторон : 4:3
Частота кадров : 23,976 кадр/сек
Цветовое пространство : YUV
Подвыборка цветности : 4:2:0
Битовая глубина : 8 бит
Тип развёртки : Прогрессивная
Бит/(Пиксели*Кадры) : 0.839
Размер потока : 3,95 Гбайт (95%)
Библиотека кодирования : x264 core 146 r2538 121396c
Настройки программы : cabac=1 / ref=4 / deblock=1:1:1 / analyse=0x3:0x113 / me=hex / subme=4 / psy=1 / psy_rd=0.40:0.00 / mixed_ref=0 / me_range=16 / chroma_me=1 / trellis=1 / 8x8dct=1 / cqm=0 / deadzone=21,11 / fast_pskip=1 / chroma_qp_offset=0 / threads=12 / lookahead_threads=3 / sliced_threads=0 / nr=0 / decimate=1 / interlaced=0 / bluray_compat=0 / constrained_intra=0 / bframes=5 / b_pyramid=2 / b_adapt=1 / b_bias=0 / direct=3 / weightb=1 / open_gop=0 / weightp=1 / keyint=250 / keyint_min=23 / scenecut=40 / intra_refresh=0 / rc_lookahead=20 / rc=2pass / mbtree=1 / bitrate=7875 / ratetol=1.0 / qcomp=0.60 / qpmin=0 / qpmax=69 / qpstep=4 / cplxblur=20.0 / qblur=0.5 / vbv_maxrate=14000 / vbv_bufsize=14000 / nal_hrd=none / filler=0 / ip_ratio=1.40 / aq=1:0.60
Язык : Russian

Аудио #1
Идентификатор : 2
Формат : AC-3
Формат/Информация : Audio Coding 3
Расширение режима : CM (complete main)
Идентификатор кодека : A_AC3
Продолжительность : 1 ч. 13 м.
Вид битрейта : Постоянный
Битрейт : 128 Кбит/сек
Канал(ы) : 2 канала(ов)
Расположение каналов : Front: L R
Частота : 48,0 КГц
Битовая глубина : 16 бит
Метод сжатия : С потерями
Размер потока : 67,2 Мбайт (2%)
Заголовок : Тимиркан Сиюхов
Язык : Russian

Аудио #2
Идентификатор : 3
Формат : AC-3
Формат/Информация : Audio Coding 3
Расширение режима : CM (complete main)
Идентификатор кодека : A_AC3
Продолжительность : 1 ч. 13 м.
Вид битрейта : Постоянный
Битрейт : 128 Кбит/сек
Канал(ы) : 2 канала(ов)
Расположение каналов : Front: L R
Частота : 48,0 КГц
Битовая глубина : 16 бит
Метод сжатия : С потерями
Размер потока : 67,2 Мбайт (2%)
Язык : Japanese

Текст
Идентификатор : 4
Формат : ASS
Идентификатор кодека : S_TEXT/ASS
Идентификатор кодека/Информация : Advanced Sub Station Alpha
Метод сжатия : Без потерь
Заголовок : Игорь Абдулхаков и Тимиркан Сиюхов
Язык : Russian







Озвучено по заказу Lupin III и мир Monkey Punch

   Похожие торренты   Торрент   Размер 
В этой теме нет новых непрочитанных сообщений. Люпен III: Украденный Люпен (спецвыпуск 16) / Lupin III: Stolen Lupin (Уэда Хидэхито) [Special] [1 из 1] [RAW] [RUS(int)+JAP] [2004, приключения, комедия, фантастика, BDRip] [1080p]

2 | 2

4.96 ГБ

В этой теме нет новых непрочитанных сообщений. Люпен III: Тактика Ангелов (спецвыпуск 17) / Lupin III: Angel Tactics (Мия Сигэюки) [Special] [1 из 1] [RAW] [RUS(int)+JAP] [2005, приключения, комедия, фантастика, BDRip] [1080p]

1 | 0

5.35 ГБ

В этой теме нет новых непрочитанных сообщений. Люпен III: Неуловимый, как туман (спецвыпуск 19) / Lupin III: Elusiveness of the Fog (Масуда Тосихико) [Special] [1 из 1] [RAW] [RUS(int)+JAP] [2007, приключения, комедия, фантастика, BDRip] [1080p]

0 | 3

5.2 ГБ

В этой теме нет новых непрочитанных сообщений. Люпен III: Семидневная Рапсодия (спецвыпуск 18 ) / Lupin III: Seven Days Rhapsody (Камэгаки Хадзимэ) [Special] [1 из 1] [RAW] [RUS(int)+JAP] [2006, приключения, комедия, BDRip] [1080p]

2 | 0

5.08 ГБ

В этой теме нет новых непрочитанных сообщений. Люпен III: Волшебная лампа - предвестник кошмара (спецвыпуск 20) / Lupin Sansei: Sweet Lost Night (Амино Тэцуро) [Special] [1 из 1] [RAW] [RUS(int)+JAP] [2006, приключения, комедия, BDRip] [1080p]

0 | 3

5.52 ГБ

В этой теме нет новых непрочитанных сообщений. Ганц (фильм) / Ганц: О / Gantz: O / Gantz O (Сато Кэйити) [Movie] [RAW] [RUS(int)+JAP] [2016, приключения, фантастика, BDRip] [1080p]

0 | 2

7.32 ГБ

В этой теме нет новых непрочитанных сообщений. Люпен III: Тайна Мамо (фильм первый) / Lupin III: The Secret of Mamo (1978) BDRip 720p | LE-Production

3 | 0

5.52 ГБ




Вы не можете начинать темы
Вы не можете отвечать на сообщения
Вы не можете редактировать свои сообщения
Вы не можете удалять свои сообщения
Вы не можете добавлять вложения

Перейти:  
Контактная информация: rstracker[пёсик]yandex.ru
 Вход
ppkBB3cker v.2 © 2008-2014 @ PPK
[ Time : 0.021s | 18 Queries | GZIP : Off ]

cron