img image001 image001 image001 image001 image001 image001 image001 image001 image001 image001 image001 image001 image001 image001 image001 image001

Planets Sun Sun Sun
Статистика раздачи
Автор: Nickolas3434 | Размер: 3.86 ГБ | Добавлен: 21 июл 2017
Раздают: 18    Качают: 6
Скачать торрент
Скачать торрент
Описание торрента

СообщениеДобавлено: 21 июл 2017 

Информация о фильме
Название: Эксперименты Лэйн
Оригинальное название: Serial Experiments Lain
Год выхода: 1998
Жанр: аниме, мультфильм, фантастика, триллер, детектив
Режиссер: Рютаро Накамура, Лия Сарджент, Дзёхэй Мацура
В ролях: Каори Симидзу, Ali Moriizumi, Аяко Кавасуми, Йоко Асада, Чихару Тезука, Манаби Мидзуно, Рюносукэ Обаяси, Бэрри Стиглер, Рэй Игараси, Кейто Такимото
О фильме:
Сериал начинается с самоубийства Тисы Ёмоды, девочки, которая училась с Лэйн в одной школе. Несколько одноклассников Тисы получают странное письмо по электронной почте, отправленное как будто самой Тисой уже после её смерти, в котором она говорит, что лишь покинула своё тело, а её сознание теперь живёт в Сети. Лэйн, которая до этого не интересовалась компьютерами, вдруг решает тоже проверить свою почту, которую завел для неё отец. Оказывается, что хоть она никогда не бывала в сети, но её там знают. Лэйн решает узнать правду об этом самоубийстве и себе.
Авторы демонстрируют зрителю тонкие грани сознания, когда привычный реальный мир оказывается не таким реальным, а любыми событиями можно управлять, всего лишь изменяя память людей. Есть ли Бог и каков он? Что такое «я»? Как отличить реальность от иллюзии? Философские вопросы, поднимаемые в сериале тесно вплетаются в сферу информационных технологий, где правят разум и логика. Что реальнее, мир сетевых технологий или мир, их порождающий? Или быть может мир является порождением Сети? Ответ на эти вопросы можно искать, определившись с жанром сериала. Это киберпанк, и такая постановка вопросов характерна для жанра в целом.
01. Странно
02. Девочки
03. Психе
04. Религия
05. Искажение
06. Дети
07. Общество
08. Слухи
09. Протокол
10. Любовь
11. Инфорнография
12. Ландшафт
13. Эго


Страна: Япония
Студия: Triangle Staff, Pioneer LDC
Продолжительность: ~00:23:00 серия
Перевод: Дублированный
Файл
Кодек: XviD / AC3
Качество: DVDRip
Видео: XviD, 640x480, 25 fps, 1532 kbps
Звук: AC3, 48 kHz, 2/0 (L,R) ch, 384.00 kbps

General
Complete name : ***Эпизод 01.avi
Format : AVI
Format/Info : Audio Video Interleave
File size : 317 MiB
Duration : 22mn 59s
Overall bit rate : 1 926 Kbps
Writing application : VirtualDubMod 1.5.10.2 (build 2540/release)
Writing library : VirtualDub-MPEG2 build 24586/release
Video
ID : 0
Format : MPEG-4 Visual
Format profile : Advanced Simple@L5
Format settings, BVOP : 1
Format settings, QPel : No
Format settings, GMC : No warppoints
Format settings, Matrix : Default (MPEG)
Codec ID : XVID
Codec ID/Hint : XviD
Duration : 22mn 59s
Bit rate : 1 532 Kbps
Width : 640 pixels
Height : 480 pixels
Display aspect ratio : 4:3
Frame rate : 25.000 fps
Color space : YUV
Chroma subsampling : 4:2:0
Bit depth : 8 bits
Scan type : Progressive
Compression mode : Lossy
Bits/(Pixel*Frame) : 0.200
Stream size : 252 MiB (80%)
Writing library : XviD 1.2.1 (UTC 2008-12-04)
Audio
ID : 1
Format : AC-3
Format/Info : Audio Coding 3
Mode extension : CM (complete main)
Format settings, Endianness : Big
Codec ID : 2000
Duration : 22mn 59s
Bit rate mode : Constant
Bit rate : 384 Kbps
Channel(s) : 2 channels
Channel positions : Front: L R
Sampling rate : 48.0 KHz
Compression mode : Lossy
Delay relative to video : 24ms
Stream size : 63.2 MiB (20%)
Alignment : Split accross interleaves
Interleave, duration : 40 ms (1.00 video frame)
Interleave, preload duratio : 500 ms



   Похожие торренты   Торрент   Размер 
В этой теме нет новых непрочитанных сообщений. Эксперименты Лэйн / Serial Experiments Lain (Накамура Рютаро) [TV] [1-13 из 13] [RAW] [RUS(int)+SUB] [1998, киберпанк, драма, фантастика, DVDRip] [HWP]

8 | 0

2.51 ГБ

В этой теме нет новых непрочитанных сообщений. Эксперименты Лэйн / Serial Experiments Lain [01-13 из 13] (1998) BDRip-HEVC 1080p | D

0 | 0

4.53 ГБ

В этой теме нет новых непрочитанных сообщений. Эксперименты по оживлению организмов / Experiments in the Revival of Organisms (1940) SATRip от New-Team

153 | 6

118.44 МБ

В этой теме нет новых непрочитанных сообщений. Серийная любовница / Serial Lover (1998) DVDRip-AVC от Brazzass

61 | 19

1.69 ГБ

В этой теме нет новых непрочитанных сообщений. Серийная любовница / Serial Lover (1998) DVD9 от Brazzass

5 | 4

6.61 ГБ

В этой теме нет новых непрочитанных сообщений. Серийная любовница / Serial Lover (1998) DVD9 от Brazzass

18 | 12

6.61 ГБ

В этой теме нет новых непрочитанных сообщений. VA - Experiments Vol 1 (2014) MP3

34 | 9

123.8 МБ




Вы не можете начинать темы
Вы не можете отвечать на сообщения
Вы не можете редактировать свои сообщения
Вы не можете удалять свои сообщения
Вы не можете добавлять вложения

Перейти:  
 Вход
ppkBB3cker v.2 © 2008-2014 @ PPK
[ Time : 0.049s | 17 Queries | GZIP : Off ]

cron