img image001 image001 image001 image001 image001 image001 image001 image001 image001 image001 image001 image001 image001 image001 image001

Planets Sun Sun Sun
Статистика раздачи
Автор: Nickolas3434 | Размер: 939.99 МБ | Добавлен: 12 авг 2017
Раздают: 2    Качают: 1
Скачать торрент
Скачать торрент
Описание торрента

СообщениеДобавлено: 12 авг 2017 

Сделано в Бездне / Созданный в Бездне / Made in Abyss / メイドインアビス




Перевод: Любительский (двухголосый) - [AniDub]
Субтитры: отсутствуют
Хардсаб: отсутствует

Формат: WEBRip, MP4, H.264, AAC
Страна: Япония
Режиссер: Кодзима Масаюки / Kojima Masayuki / 小島正幸
Жанр: приключения
Продолжительность: ТВ (>12 эп.), 25 мин.
Год выпуска: 2017
Озвучка: RiZZ_fisher, Jade

Студия:

Описание: Огромный лабиринт пещер, известный как Бездна, остался единственным местом в мире, не исследованным человеком. Никто не знает, как они глубоки и как устроены, какие необычные и удивительные создания их населяют, какие сокровища хранят их недра. Поколения увлеченных исследователей притягивали эти неизведанные глубины. Люди таких смельчаков прозвали "рейдерами пещер".

В Осу, городе на окраинах Бездны, живет сирота Рико, мечтающая стать великим исследователем пещер, как и её мать. Однажды, во время очередной вылазки в мрачные глубины пещер, Рико обнаруживает мальчика, который оказался роботом...





Видео: 1280 x 720 (16:9) at 23.976 fps, AVC (x264), , ~1619 Kbps avg, 0.073 bit/pixel, 8 bit
Аудио: 48.0 kHz, AAC (LC), 2 ch (Front: L R), 192 kbps avg


Перевод: Харитон Харько
Тайминг и работа со звуком: Lonty

1. Город вокруг большой дыры.
2. Праздник воскрешения.
3. Отбытие.

4. Край Бездны.
5. Пушка-испепелитель.

Общее
Полное имя : [AniDub]_Made_in_Abyss_[720p]_[RiZZ_fisher_Jade] / [AniDub]_Made_in_Abyss_[01]_[720p_x264_Aac]_[RiZZ_fisher_Jade].mp4
Формат : MPEG-4
Профиль формата : Base Media
Идентификатор кодека : isom
Размер файла : 312 Мбайт
Продолжительность : 24 м.
Общий поток : 1815 Кбит/сек
Дата кодирования : UTC 2017-07-26 13:51:41
Дата пометки : UTC 2017-07-26 13:51:41
Программа кодирования : Yamb 2.1.0.0 [http://yamb.unite-video.com]

Видео
Идентификатор : 1
Формат : AVC
Формат/Информация : Advanced Video Codec
Профиль формата :
Параметр CABAC формата : Да
Параметр ReFrames формата : 4 кадры
Параметры GOP формата : M=4, N=12
Идентификатор кодека : avc1
Идентификатор кодека/Информация : Advanced Video Coding
Продолжительность : 24 м.
Вид битрейта : Переменный
Битрейт : 1619 Кбит/сек
Максимальный битрейт : 11,1 Мбит/сек
Ширина : 1280 пикс.
Высота : 720 пикс.
Соотношение сторон : 16:9
Режим частоты кадров : Постоянный
Частота кадров : 23,976 кадр/сек
Цветовое пространство : YUV
Подвыборка цветности : 4:2:0
Битовая глубина : 8 бит
Тип развёртки : Прогрессивная
Бит/(Пиксели*Кадры) : 0.073
Размер потока : 278 Мбайт (89%)
Библиотека кодирования : x264 core 152 r2851+58 429492e t_mod_Custom [8-bit@all X86_64]
Настройки программы : cabac=1 / ref=3 / deblock=1:0:0 / analyse=0x1:0x111 / me=hex / subme=7 / psy=1 / fade_compensate=0.00 / psy_rd=1.00:0.00 / mixed_ref=1 / me_range=16 / chroma_me=1 / trellis=1 / 8x8dct=0 / cqm=0 / deadzone=21,11 / fast_pskip=1 / chroma_qp_offset=-2 / threads=12 / lookahead_threads=2 / sliced_threads=0 / nr=0 / decimate=1 / interlaced=0 / bluray_compat=0 / constrained_intra=0 / fgo=0 / bframes=3 / b_pyramid=2 / b_adapt=1 / b_bias=0 / direct=1 / weightb=1 / open_gop=0 / weightp=2 / keyint=240 / keyint_min=1 / scenecut=40 / intra_refresh=0 / rc_lookahead=40 / rc=crf / mbtree=1 / crf=20.0000 / qcomp=0.60 / qpmin=0:0:0 / qpmax=69:69:69 / qpstep=4 / ip_ratio=1.40 / aq=1:1.50 / aq-sensitivity=10.00 / aq-factor=1.00:1.00:1.00 / aq2=0 / aq3=0
Дата кодирования : UTC 2017-07-07 13:05:15
Дата пометки : UTC 2017-07-26 13:51:43
Основные цвета : BT.709-5, BT.1361, IEC 61966-2-4, SMPTE RP177
Характеристики трансфера : BT.709-5, BT.1361
Коэффициенты матрицы : BT.709-5, BT.1361, IEC 61966-2-4 709, SMPTE RP177

Аудио
Идентификатор : 2
Формат : AAC
Формат/Информация : Advanced Audio Codec
Профиль формата : LC
Идентификатор кодека : 40
Продолжительность : 24 м.
Вид битрейта : Переменный
Битрейт : 192 Кбит/сек
Максимальный битрейт : 197 Кбит/сек
Канал(ы) : 2 канала(ов)
Расположение каналов : Front: L R
Частота : 48,0 КГц
Метод сжатия : С потерями
Размер потока : 33,0 Мбайт (11%)
Язык : English
Дата кодирования : UTC 2017-07-26 13:51:43
Дата пометки : UTC 2017-07-26 13:51:43






   Похожие торренты   Торрент   Размер 
В этой теме нет новых непрочитанных сообщений. Сделано в Бездне / Созданный в Бездне / Made in Abyss (Кодзима Масаюки) [TV] [01-08 из 13] [RAW] [RUS(int)] [2017, приключения, WEBRip] [720р]

6 | 0

2.62 ГБ

В этой теме нет новых непрочитанных сообщений. Сделано в Бездне / Созданный в Бездне / Made in Abyss (Кодзима Масаюки) [TV] [01-02 из 13] [RAW] [RUS(int)] [2017, приключения, WEBRip] [720р]

6 | 2

636.91 МБ

В этой теме нет новых непрочитанных сообщений. Сделано в Бездне / Созданный в Бездне / Made in Abyss (Кодзима Масаюки) [TV] [01-06 из 13] [RAW] [RUS(int)] [2017, приключения, WEBRip] [720р]

2 | 0

1.96 ГБ

В этой теме нет новых непрочитанных сообщений. Сделано в Бездне / Созданный в Бездне / Made in Abyss (Кодзима Масаюки) [TV] [01-07 из 13] [RAW] [RUS(int)] [2017, приключения, WEBRip] [720р]

8 | 0

2.29 ГБ

В этой теме нет новых непрочитанных сообщений. Созданный в Бездне / Made in Abyss [01 из 12] (2017) WEBRip 1080p | SUB

7 | 1

1.1 ГБ

В этой теме нет новых непрочитанных сообщений. Созданный в Бездне / Made in Abyss [01 из 12] (2017) WEBRip 1080p | SUB

1 | 0

505.37 МБ

В этой теме нет новых непрочитанных сообщений. Созданный в Бездне / Made in Abyss [01-08 из 13] (2017) WEBRip 1080p | KANSAI Studio

11 | 5

4.5 ГБ




Вы не можете начинать темы
Вы не можете отвечать на сообщения
Вы не можете редактировать свои сообщения
Вы не можете удалять свои сообщения
Вы не можете добавлять вложения

Перейти:  
Для Мосгорсуда, Роскомнадзора и рекламодателей: mosgorsud-torrent[собачка]yandex.ru
 Вход
ppkBB3cker v.2 © 2008-2014 @ PPK
[ Time : 0.045s | 18 Queries | GZIP : Off ]

cron